Лицензия

MVO

1

1 сезон

Лицензия

Лицензия

13

MVO

1 сезон

Deluxe Edition

pack

Рекомендуем

30

Repack

ВАЖНО

ВАЖНО

Ghostwire

RePack

jed

RePack

fifa19

RePack

RDR2

RePack

NEED FOR SPEED™ PAYBACK

RePack

Кинопоиск HD

 Острые козырьки 6 сезон

6 сезон

FAR CRY 6

RePack

Лицензия

MVO

1

1 сезон

1 сезон

Лицензия

  

Счастье надо беречь (Иосиф Шульман) [1958, СССР, драма, DVDRip от AVP Studio]

Счастье надо беречь через торрент piratbit.org

Размер: 745 MB | Добавлен: 4 года 11 мес. назад | Торрент скачан:21 раз
Смотреть онлайн Счастье надо беречь | Скачать   

16-10-2017 10:02 Счастье надо беречь Скачать торрент  

Счастье надо беречь
Страна: СССР
Производство: Беларусьфильм

Жанр: драма
Год выпуска: 1958
Продолжительность: 01:23:12

Перевод: Не требуется
Cубтитры: нет
Оригинальная аудиодорожка: русский

Режиссер: Иосиф Шульман

В ролях:
Константин Скоробогатов, Юрий Саранцев, Данута Столярская, Виталий Полицеймако, Нина Дорошина, Борис Кудрявцев, Владимир Иванов, Дзидра Ритенберга, Степан Хацкевич, Алексей Барановский...
Об актёрах подробней

Описание:
Вернувшись в родное село по окончании срока воинской службы, Виктор (Юрий Саранцев) привел в дом невесту — и вскоре сыграли свадьбу. Виктор с большим энтузиазмом работает в колхозе, его назначают бригадиром, но счастье старого Данилы, отца Виктора, омрачает грязная сплетня — будто бы отцом Виктора является не он, а Шандыбович, неблаговидные дела которого были недавно разоблачены Виктором. Между отцом и сыном назревает разлад. Вначале отец, а затем и сын покидают дом. И только весть о будущем ребенке вновь соединяет семью.

Источник: DVD5 R5
Качество видео: DVDRip
Формат видео: AVI

Видео: 640x480 (4:3), 25 fps, XviD ~ 1115 kbps avg, 0.145 bit/pixel
Аудио: 48 kHz, MP3 2.0, 128 kbps

Раздача от:
Общее
Полное имя : Schaste.nado.berech.1958.DVDRip-745_[New-team]_by_AVP_Studio.avi
Формат : AVI
Формат/Информация : Audio Video Interleave
Размер файла : 745 Мбайт
Продолжительность : 1 ч. 23 м.
Общий поток : 1252 Кбит/сек
Программа кодирования : VirtualDubMod 1.5.10.3 | www.virtualdub-fr.org || (build 2550/release)
Библиотека кодирования : VirtualDubMod build 2550/release

Видео
Идентификатор : 0
Формат : MPEG-4 Visual
Профиль формата : Advanced Simple@L5
Параметр BVOP формата : 1
Параметр QPel формата : Нет
Параметр GMC формата : Без точки перехода
Параметр матрицы формата : Выборочная
Идентификатор кодека : XVID
Идентификатор кодека/Подсказка : XviD
Продолжительность : 1 ч. 23 м.
Битрейт : 1115 Кбит/сек
Ширина : 640 пикселей
Высота : 480 пикселей
Соотношение сторон : 4:3
Частота кадров : 25,000 кадров/сек
Цветовое пространство : YUV
Субдискретизация насыщенности : 4:2:0
Битовая глубина : 8 бит
Тип развёртки : Прогрессивная
Метод сжатия : С потерями
Бит/(Пиксели*Кадры) : 0.145
Размер потока : 663 Мбайт (89%)
Библиотека кодирования : XviD 73

Аудио
Идентификатор : 1
Формат : MPEG Audio
Версия формата : Version 1
Профиль формата : Layer 3
Идентификатор кодека : 55
Идентификатор кодека/Подсказка : MP3
Продолжительность : 1 ч. 23 м.
Вид битрейта : Постоянный
Битрейт : 128 Кбит/сек
Каналы : 2 канала
Частота : 48,0 КГц
Метод сжатия : С потерями
Размер потока : 76,2 Мбайт (10%)
Выравнивание : Соединение по промежуткам
Продолжительность промежутка : 40 мс. (1,00 видеокадр)
Время предзагрузки промежутка : 504 мс.
Библиотека кодирования : LAME3.99r
Настройки программы : -m s -V 4 -q 2 -lowpass 17 -b 128



Скачать Счастье надо беречь через торрент http://s009.radikal.ru/i310/1710/0d/6ac87e085607.png Скачать, смотреть онлайн Счастье надо беречь бесплантно в хорошем качестве Описание:Вернувшись в родное село по окончании срока воинской службы, Виктор (Юрий Саранцев) привел в дом невесту — и вскоре сыграли ... 10 10 1
Info! Золотая раздача, скачанное не засчитывается.
Торрент: Зарегистрирован [2017-10-16 10:02] · скачан: 21 раз
Статус: √ проверено
Размер: 745 MB
Как cкачать? Как скачать Счастье надо беречь через торрент | UTorrent

% Раздел Тема Автор DL S | L
Кино СССР [ 1.09 GB ] Счастье надо беречь | | DVDRip-AVC от AVP Studio AVP Studio Скачать
1 | 0
Кино СССР [ 1.09 GB ] Счастье надо беречь | | DVDRip от AVP Studio AVP Studio Скачать
1 | 0

28-11-2019 20:33  

Отключить вcю реклaмy на сайте

    Дорогой пользователь! Огромная просьба, поблагодарите релизера, оцените раздачу и оставьте свои комментарий, если Вы скачали Счастье надо беречь через торрент бесплатно!!
    Комментировать посты могут только пользователи прошедшие не сложную регистрацию
    Показать сообщения:    


    Счастье надо беречь через торрент
    Скачать бесплатно Счастье надо беречь
    Счастье надо беречь скачать торрент
    Счастье надо беречь смотреть онлайн
    Cкачать фильм Счастье надо беречь бесплатно
    Счастье надо беречь скачать торрент в хорошем качестве
    Счастье надо беречь смотреть онлайн бесплатно в хорошем качестве
    Вы не можете начинать темы
    Вы не можете отвечать на сообщения
    Вы не можете редактировать свои сообщения
    Вы не можете удалять свои сообщения
    Вы не можете голосовать в опросах
    Вы не можете прикреплять файлы к сообщениям
    Вы можете скачивать файлы