Лицензия

MVO

1

1 сезон

Лицензия

Лицензия

13

MVO

1 сезон

Deluxe Edition

pack

Рекомендуем

30

Repack

ВАЖНО

ВАЖНО

Ghostwire

RePack

jed

RePack

fifa19

RePack

RDR2

RePack

NEED FOR SPEED™ PAYBACK

RePack

Кинопоиск HD

 Острые козырьки 6 сезон

6 сезон

FAR CRY 6

RePack

Лицензия

MVO

1

1 сезон

1 сезон

Лицензия

  

Матрос с "Кометы" (Исидор Анненский) [1958, мюзикл, мелодрама, DVDRip от AVP Studio]

Матрос с "Кометы" через торрент piratbit.org

Размер: 1.09 GB | Добавлен: 4 года 11 мес. назад | Торрент скачан:16 раз
Смотреть онлайн Матрос с "Кометы" | Скачать   

19-10-2017 08:11 Матрос с "Кометы" Скачать торрент  

Матрос с "Кометы"
Страна: СССР
Производство: Мосфильм

Жанр: мюзикл, мелодрама
Год выпуска: 1958
Продолжительность: 01:28:57

Перевод: Не требуется
Cубтитры: нет
Оригинальная аудиодорожка: русский

Режиссер: Исидор Анненский

В ролях:
Глеб Романов, Николай Крючков, Николай Свободин, Татьяна Бестаева, Майя Менглет, Владимир Сошальский, Иосиф Колин (Гросс), Иван Любезнов, Анна Лисянская, Георгий Гумилевский, Юрий Игнатов (II), Юрий Киреев, Евгений Меченко, Валентин Печников, А. Сорокин, Леонид Чубаров...
Об актёрах подробней

Описание:
Матрос из южного городка Сергей Чайкин (Глеб Романов), песни которого любят и знают моряки, безнадежно влюблен в студентку и спортсменку Лену. Но не только робость мешает Сергею объясниться с насмешливой девушкой. Директор Дома моряков Вадим - его серьезный соперник - едет с Леной в Москву на Всемирный фестиваль молодежи. Однако в хоре моряков заболевает солист - и Сергей вылетает в столицу...

Источник: DVD5 R5
Качество видео: DVDRip
Формат видео: AVI

Видео: 672x496 (4:3), 25 fps, XviD ~ 1548 kbps avg, 0.186 bit/pixel
Аудио: 48 kHz, Dolby Digital AC3 2.0, 192 kbps

Раздача от:
Общее
Полное имя : Matros.s.Komety.1958.DVDRip_[New-team]_by_AVP_Studio.avi
Формат : AVI
Формат/Информация : Audio Video Interleave
Размер файла : 1,09 Гбайт
Продолжительность : 1 ч. 28 м.
Общий поток : 1750 Кбит/сек
Программа кодирования : VirtualDubMod 1.5.10.3 | www.virtualdub-fr.org || (build 2550/release)
Библиотека кодирования : VirtualDubMod build 2550/release

Видео
Идентификатор : 0
Формат : MPEG-4 Visual
Профиль формата : Advanced Simple@L5
Параметр BVOP формата : 1
Параметр QPel формата : Нет
Параметр GMC формата : Без точки перехода
Параметр матрицы формата : Выборочная
Идентификатор кодека : XVID
Идентификатор кодека/Подсказка : XviD
Продолжительность : 1 ч. 28 м.
Битрейт : 1548 Кбит/сек
Ширина : 672 пикселя
Высота : 496 пикселей
Соотношение сторон : 4:3
Частота кадров : 25,000 кадров/сек
Цветовое пространство : YUV
Субдискретизация насыщенности : 4:2:0
Битовая глубина : 8 бит
Тип развёртки : Прогрессивная
Метод сжатия : С потерями
Бит/(Пиксели*Кадры) : 0.186
Размер потока : 985 Мбайт (88%)
Библиотека кодирования : XviD 73

Аудио
Идентификатор : 1
Формат : AC-3
Формат/Информация : Audio Coding 3
Параметр Endianness формата : Big
Идентификатор кодека : 2000
Продолжительность : 1 ч. 28 м.
Вид битрейта : Постоянный
Битрейт : 192 Кбит/сек
Каналы : 2 канала
Расположение каналов : Front: L R
Частота : 48,0 КГц
Частота кадров : 31,250 кадров/сек (1536 SPF)
Битовая глубина : 16 бит
Метод сжатия : С потерями
Размер потока : 122 Мбайт (11%)
Выравнивание : Разделение по промежуткам
Продолжительность промежутка : 40 мс. (1,00 видеокадр)
Время предзагрузки промежутка : 500 мс



Скачать Матрос с "Кометы" через торрент http://s019.radikal.ru/i600/1710/7a/f04e9bc8050b.png Скачать, смотреть онлайн Матрос с "Кометы" бесплантно в хорошем качестве Описание:Матрос из южного городка Сергей Чайкин (Глеб Романов), песни которого любят и знают моряки, безнадежно влюблен в студентку и ... 5 10 1
Info! Золотая раздача, скачанное не засчитывается.
Торрент: Зарегистрирован [2017-10-19 08:11] · скачан: 16 раз
Статус: √ проверено
Размер: 1.09 GB
Как cкачать? Как скачать Матрос с "Кометы" через торрент | UTorrent

28-11-2019 20:33  

Отключить вcю реклaмy на сайте

    Дорогой пользователь! Огромная просьба, поблагодарите релизера, оцените раздачу и оставьте свои комментарий, если Вы скачали Матрос с "Кометы" через торрент бесплатно!!
    Комментировать посты могут только пользователи прошедшие не сложную регистрацию
    Показать сообщения:    


    Матрос с "Кометы" через торрент
    Скачать бесплатно Матрос с "Кометы"
    Матрос с "Кометы" скачать торрент
    Матрос с "Кометы" смотреть онлайн
    Cкачать фильм Матрос с "Кометы" бесплатно
    Матрос с "Кометы" скачать торрент в хорошем качестве
    Матрос с "Кометы" смотреть онлайн бесплатно в хорошем качестве
    Вы не можете начинать темы
    Вы не можете отвечать на сообщения
    Вы не можете редактировать свои сообщения
    Вы не можете удалять свои сообщения
    Вы не можете голосовать в опросах
    Вы не можете прикреплять файлы к сообщениям
    Вы можете скачивать файлы