2 сезон

iTunes

WEBRip

1

2 сезон

iTunes

1 сезон

1 сезон

RePack

30

Новинка

ВАЖНО

ИГРА 18+

pack

RePack

MK11
pack

Легкие деньги

RePack

jed

RePack

fifa19

RePack

RDR2

RePack

NEED FOR SPEED™ PAYBACK

4 сезон

9 сезон

Бесстыжие 9 сезон

Все сериалы

все сериалы на PB.wtf

RePack

FAR CRY 5

Anonymous, добрый вечер, мы не успеваем собрать деньги на оплату серверов за февраль, помогите нам пожалуйста в это трудное время. В качестве благодарности мы отключим Вам всю рекламу на сайте (укажите свой ник в строку Ваше имя)!

×
  
Magnet ссылка

Детективное агентство Дирка Джентли / Dirk Gently's Holistic Detective Agency / Сезон: 2 / Серии 1-10 из 10 (Пако Кабесас, Дин Паризо, Майкл Патрик Джэнн) [2017, фантастика, триллер, драма, WEBRip] [Ukr MVO] (НеЗупиняйПродакшн) piratbit.org

Детективное агентство Дирка Джентли через торрент piratbit.org

Размер: 6.21 GB | Добавлен: 3 года 2 мес. назад | Торрент скачан:6 раз
Скачать  

19-10-2017 17:33 Детективное агентство Дирка Джентли Скачать торрент  

Детективное агентство Дирка Джентли | Dirk Gently's Holistic Detective Agency Год выпуска: 2017
Страна: США, Великобритания
Жанр: комедия, фантастика
Продолжительность: ~ 00:46:00
Перевод: Украинский (профессиональный, многоголосый)
Субтитры: отсутствуют

Режиссёр: Макс Лэндис

В ролях: Кристиан Бако, Сэмюэл Барнетт, Элайджа Вуд, Нил Браун Мл., Аарон Дуглас, Фиона Дуриф, Майкл Эклунд, Джейд Эшете, Мфо Коахо

Описание: Главный герой этого сериала никогда не отступит перед сложными расследованиями. Детектив Джентли и его верный, но жутко недовольный всем на свете помощник Тодд готовы отправиться на раскрытие очередного преступления. Каждый новый сезон эти персонажи будут расследовать сложное запутанное дело. В этот раз они сталкиваются с тайной, которую никто не мог раскрыть уже давно. На пути главных героев ожидают реальные опасности. Каждая новая серия - это очередной шаг к разгадке, а также очередное испытание, которое Джентли и Тодду предстоит пройти, несмотря на трудности и некоторые проблемы с логическим мышлением.



Качество: WEBRip
Формат: AVI
Видео: XviD, 720x400 (16:9), 23,976 fps, ~1500 kbps
Аудио: AC3, 48 kHz, 6 ch, 640 kbps

Релиз --

General
Complete name : E:\Dirk Gentlys Holictic Detective Agency (Season 2) WEBRip [Ukr]\Dirk.Gentlys.Holistic.Detective.Agency.S02E01.WEBRip.Ukr.avi
Format : AVI
Format/Info : Audio Video Interleave
File size : 641 MiB
Duration : 41 min 32 s
Overall bit rate : 2 158 kb/s
Writing application : VirtualDubMod 1.5.10.3 | www.virtualdub-fr.org || (build 2550/release)
Writing library : VirtualDubMod build 2550/release

Video
ID : 0
Format : MPEG-4 Visual
Format profile : Advanced Simple@L5
Format settings : BVOP1
Format settings, BVOP : 1
Format settings, QPel : No
Format settings, GMC : No warppoints
Format settings, Matrix : Default (H.263)
Codec ID : DX50
Codec ID/Hint : DivX 5
Duration : 41 min 32 s
Bit rate : 1 424 kb/s
Width : 720 pixels
Height : 400 pixels
Display aspect ratio : 16:9
Frame rate : 23.976 (24000/1001) FPS
Color space : YUV
Chroma subsampling : 4:2:0
Bit depth : 8 bits
Scan type : Progressive
Compression mode : Lossy
Bits/(Pixel*Frame) : 0.206
Stream size : 423 MiB (66%)
Writing library : XviD 1.2.1 (UTC 2008-12-04)

Audio
ID : 1
Format : AC-3
Format/Info : Audio Coding 3
Format settings, Endianness : Big
Codec ID : 2000
Duration : 41 min 32 s
Bit rate mode : Constant
Bit rate : 640 kb/s
Channel(s) : 6 channels
Channel positions : Front: L C R, Side: L R, LFE
Sampling rate : 48.0 kHz
Frame rate : 31.250 FPS (1536 SPF)
Bit depth : 16 bits
Compression mode : Lossy
Stream size : 190 MiB (30%)
Alignment : Split accross interleaves
Service kind : Complete Main

скриншот  скриншот  скриншот  
Когда раздача ведётся путём добавления новых серий, при каждом добавлении создётся новый торрент. Чтобы начать докачку новой серии, пользователям необходимо сделать следующее:
(1) остановить скачивание,
(2) удалить старый торрент у себя из клиента (старые серии удалять не надо),
(3) скачать новый торрент и запустить его у себя в клиенте вместо старого, при этом указать клиенту путь в старую папку, куда и должно происходить скачивание новых серий.
Ваш клиент при этом должен произвести хеширование (проверку) старой папки (если не производит сам - помогите ему сделать это), и будет докачивать только те серии, которых у вас ещё нет. Старые серии при этом не удаляются, а продолжают раздаваться!
Eсли вы уже удалили старые серии, то предотвратить повторную закачку старых серий можно, отжав галочку в соответсвующих местах при запуске нового торрента. По возможности, желательно не удалять старые серии как можно дольше, чтобы релизёр не столько продолжал раздавать старые серии, а смог сконцентрироваться на новых.
piratbit.org



Скачать Детективное агентство Дирка Джентли через торрент http://i89.fastpic.ru/big/2017/1019/17/f4e29a6d81a8caaeb04563daa4591217.jpg Скачать фильм Детективное агентство Дирка Джентли через торрент бесплантно в хорошем качестве Описание: Главный герой этого сериала никогда не отступит перед сложными расследованиями. Детектив Джентли и его верный, но жутко ... 4.6 10 5
Торрент: Зарегистрирован [2017-12-20 14:50] · скачан: 6 раз
Статус: √ проверено
Размер: 6.21 GB
Как cкачать? Как скачать Детективное агентство Дирка Джентли через торрент | UTorrent



Последний раз редактировалось: killermax2013 (2017-12-20 14:50), всего редактировалось 3 раз(а)

28-11-2019 20:33  

Отключить всю рекламу на сайте

    Дорогой пользователь! Огромная просьба, поблагодарите релизера, оцените раздачу и оставьте свои комментарий, если Вы скачали Детективное агентство Дирка Джентли через торрент бесплатно! Внесите свою лепту в развитие PiratBit!
    Комментировать посты могут только пользователи прошедшие не сложную регистрацию
    Показать сообщения:    

    Детективное агентство Дирка Джентли через торрент
    Скачать бесплатно Детективное агентство Дирка Джентли
    Детективное агентство Дирка Джентли скачать торрент
    Детективное агентство Дирка Джентли смотреть онлайн
    Cкачать фильм Детективное агентство Дирка Джентли бесплатно
    Детективное агентство Дирка Джентли скачать торрент в хорошем качестве
    Детективное агентство Дирка Джентли смотреть онлайн бесплатно в хорошем качестве


    Вы не можете начинать темы
    Вы не можете отвечать на сообщения
    Вы не можете редактировать свои сообщения
    Вы не можете удалять свои сообщения
    Вы не можете голосовать в опросах
    Вы не можете прикреплять файлы к сообщениям
    Вы можете скачивать файлы