Доктор Стрэндж

Лицензия

Добыча

MVO

Дом дракона

1 сезон

Тор

Лицензия

Мэверик

Лицензия

Там, где раки поют

MVO

Властелин колец

1 сезон

Ultimate

pack

Рекомендуем

30

Repack

ВАЖНО

ВАЖНО

Ghostwire

RePack

jed

RePack

nioh2

RePack

RDR2

RePack

NEED FOR SPEED™ PAYBACK

RePack

скачать торрент

Кинопоиск HD

Острые козырьки 6 сезон

6 сезон

FAR CRY 6

RePack

скачать торрент

Лицензия

скачать торрент

MVO

1

1 сезон

скачать торрент

1 сезон

скачать торрент

Лицензия

  

Поэма о море (Юлия Солнцева) [1958, СССР, драма, DVDRip от AVP Studio]

Поэма о море через торрент piratbit.org

Размер: 1.09 GB | Добавлен: 4 года 11 мес. назад | Торрент скачан:15 раз
Смотреть онлайн | Скачать   

21-10-2017 07:59 Поэма о море Скачать торрент  

Поэма о море
Страна: СССР
Производство: Мосфильм

Жанр: драма
Год выпуска: 1958
Продолжительность: 01:44:13

Перевод: Не требуется
Cубтитры: нет
Оригинальная аудиодорожка: русский

Режиссер: Юлия Солнцева

В ролях:
Борис Ливанов, Борис Андреев, Михаил Царёв, Михаил Романов, Зинаида Кириенко, Иван Козловский, Леонид Тарабаринов, Георгий Ковров (Кувшинов), Мария Виталь, Евгений Бондаренко, Валентина Владимирова, Евгений Агуров, Наталья Наум, Антонина Кончакова, Леонид Пархоменко, Евгений Гуров, Кирилл Маринченко, Василий Витрищак, Ф. Трегуб...
Об актёрах подробней

Описание:
Игровая кинопоэма с элементами анимации о строителях Каховской гидростанции. Первая роль в кино Нины Сазоновой (Степанида), а также известного лирического тенора и знатока украинской народной песни Ивана Козловского (кобзарь).

Источник: DVD5 R5
Качество видео: DVDRip
Формат видео: AVI

Видео: 688x480 (1,433:1), 25 fps, XviD ~ 1294 kbps avg, 0.157 bit/pixel
Аудио: 48 kHz, Dolby Digital AC3 2.0, 192 kbps

Раздача от:
Общее
Полное имя : Poyema.o.more.1958.DVDRip_[New-team]_by_AVP_Studio.avi
Формат : AVI
Формат/Информация : Audio Video Interleave
Размер файла : 1,09 Гбайт
Продолжительность : 1 ч. 44 м.
Общий поток : 1496 Кбит/сек
Программа кодирования : VirtualDubMod 1.5.10.3 | www.virtualdub-fr.org || (build 2550/release)
Библиотека кодирования : VirtualDubMod build 2550/release

Видео
Идентификатор : 0
Формат : MPEG-4 Visual
Профиль формата : Advanced Simple@L5
Параметр BVOP формата : 1
Параметр QPel формата : Нет
Параметр GMC формата : Без точки перехода
Параметр матрицы формата : Выборочная
Идентификатор кодека : XVID
Идентификатор кодека/Подсказка : XviD
Продолжительность : 1 ч. 44 м.
Битрейт : 1294 Кбит/сек
Ширина : 688 пикселей
Высота : 480 пикселей
Соотношение сторон : 1,433
Частота кадров : 25,000 кадров/сек
Цветовое пространство : YUV
Субдискретизация насыщенности : 4:2:0
Битовая глубина : 8 бит
Тип развёртки : Прогрессивная
Метод сжатия : С потерями
Бит/(Пиксели*Кадры) : 0.157
Размер потока : 965 Мбайт (87%)
Библиотека кодирования : XviD 73

Аудио
Идентификатор : 1
Формат : AC-3
Формат/Информация : Audio Coding 3
Параметр Endianness формата : Big
Идентификатор кодека : 2000
Продолжительность : 1 ч. 44 м.
Вид битрейта : Постоянный
Битрейт : 192 Кбит/сек
Каналы : 2 канала
Расположение каналов : Front: L R
Частота : 48,0 КГц
Частота кадров : 31,250 кадров/сек (1536 SPF)
Битовая глубина : 16 бит
Метод сжатия : С потерями
Размер потока : 143 Мбайт (13%)
Выравнивание : Разделение по промежуткам
Продолжительность промежутка : 40 мс. (1,00 видеокадр)
Время предзагрузки промежутка : 500 мс



Скачать Поэма о море через торрент http://s015.radikal.ru/i331/1710/ac/06266dae00b0.png Скачать, смотреть онлайн Поэма о море бесплантно в хорошем качестве Описание:Игровая кинопоэма с элементами анимации о строителях Каховской гидростанции. Первая роль в кино Нины Сазоновой (Степанида), а ... 5 10 1
Info! Золотая раздача, скачанное не засчитывается.
Торрент: Зарегистрирован [2017-10-21 07:59] · скачан: 15 раз
Статус: √ проверено
Размер: 1.09 GB
Как cкачать? Как скачать Поэма о море через торрент | UTorrent

% Раздел Тема Автор DL S | L
Кино СССР [ 1.09 GB ] Поэма о море | | DVDRip-AVC от AVP Studio AVP Studio Скачать
1 | 0
Кино СССР [ 746 MB ] Поэма о море | | DVDRip от AVP Studio AVP Studio Скачать
1 | 0

28-11-2019 20:33  


Отключить вcю реклaмy на сайте, в т.ч. и в плеере онлайн просмотра!

    Дорогой пользователь! Огромная просьба, поблагодарите релизера, оцените раздачу и оставьте свои комментарий, если Вы скачали Поэма о море через торрент бесплатно!!
    Комментировать посты могут только пользователи прошедшие не сложную регистрацию
    Показать сообщения:    


    Поэма о море через торрент
    Скачать бесплатно Поэма о море
    Поэма о море скачать торрент
    Поэма о море смотреть онлайн
    Cкачать фильм Поэма о море бесплатно
    Поэма о море скачать торрент в хорошем качестве
    Поэма о море смотреть онлайн бесплатно в хорошем качестве
    Вы не можете начинать темы
    Вы не можете отвечать на сообщения
    Вы не можете редактировать свои сообщения
    Вы не можете удалять свои сообщения
    Вы не можете голосовать в опросах
    Вы не можете прикреплять файлы к сообщениям
    Вы можете скачивать файлы