Ссылка на приватное зеркало нашего сайта всего за 1$. Внимание количество ограничено!!!

2 сезон

iTunes

iTunes

1

iTunes

iTunes

iTunes

WEBRip

iTunes

30
pack

Вам бонус

ВАЖНО

!!Акция!!

Alien_RageХит недели

RePack

Horizon Zero Dawn

ИГРА 18+

pack

RePack

jed

!!Акция!!

Alien_Rage

RePack

fifa19

RePack

Assassins Creed: Odyssey

RePack

NEED FOR SPEED™ PAYBACK

4 сезон

9 сезон

Бесстыжие 9 сезон

Все сериалы

все сериалы на PB.wtf

RePack

FAR CRY 5
  

Вдали от нее / Away from Her (Сара Полли) [2006 г., драма, WEB-DLRip] DVO piratbit.org

Вдали от нее через торрент piratbit.org

Размер: 1.45 GB | Добавлен: 2 года 11 мес. назад | Торрент скачан:15 раз
Скачать  

24-10-2017 16:37 Вдали от нее Скачать торрент  

Вдали от нее / Away from Her
Год выпуска: 2006
Страна: Канада, Великобритания, США
Жанр: драма
Продолжительность: 01:49:46
Перевод: Профессиональный (двухголосый)

Режиссер: Сара Полли

rating

В ролях: Гордон Пинсент, Стейси Ле Бёрг, Джули Кристи, Олимпия Дукакис, Дианна Дезмари, Клер Култер, Томас Хауф, Альберта Уотсон, Грэйс Линн Кунг, Лили Фрэнкс

Описание: Фиона и Грант, супружеская пара из Онтарио, женаты уже более 40 лет. Теперь, когда жизнь клонится к закату, они вынуждены признать: «забывчивость» Фионы — на самом деле проявление болезни Альцгеймера, и женщине необходимо лечиться. Bпервые за долгие годы супругам предстоит продолжительная разлука. По правилам лечебницы, в первый месяц посетители не допускаются, чтобы больному было легче адаптироваться к новым условиям. Когда Грант наконец навещает Фиону, он с ужасом видит, что она не только забыла его, но и отдала свое сердце другому мужчине.

Качество: WEB-DLRip
Формат: AVI
Видео: XviD, 1498 Кбит/с, 720x400, 23.976 кадр/с
Аудио: AC3, 6 ch, 384 Кбит/с
Релиз от: Koenig
скриншот   скриншот   скриншот   скриншот   скриншот   скриншот  

Общее
Полное имя : Away.from.Her.2006.WEB-DLRip.avi
Формат : AVI
Формат/Информация : Audio Video Interleave
Размер файла : 1,45 Гбайт
Продолжительность : 1 ч. 49 м.
Общий поток : 1891 Кбит/сек
Программа кодирования : VirtualDubMod 1.5.10.2 (build 2540/release)
Библиотека кодирования : VirtualDubMod build 2540/release

Видео
Идентификатор : 0
Формат : MPEG-4 Visual
Профиль формата : Advanced Simple@L5
Параметр BVOP формата : 1
Параметр QPel формата : Нет
Параметр GMC формата : Без точки перехода
Параметр матрицы формата : Выборочная
Идентификатор кодека : XVID
Идентификатор кодека/Подсказка : XviD
Продолжительность : 1 ч. 49 м.
Битрейт : 1498 Кбит/сек
Ширина : 720 пикселей
Высота : 400 пикселей
Соотношение сторон : 16:9
Частота кадров : 23,976 (24000/1001) кадра/сек
Цветовое пространство : YUV
Субдискретизация насыщенности : 4:2:0
Битовая глубина : 8 бит
Тип развёртки : Прогрессивная
Метод сжатия : С потерями
Бит/(Пиксели*Кадры) : 0.217
Размер потока : 1,15 Гбайт (79%)
Библиотека кодирования : XviD 65

Аудио
Идентификатор : 1
Формат : AC-3
Формат/Информация : Audio Coding 3
Параметр Endianness формата : Big
Идентификатор кодека : 2000
Продолжительность : 1 ч. 49 м.
Вид битрейта : Постоянный
Битрейт : 384 Кбит/сек
Каналы : 6 каналов
Расположение каналов : Front: L C R, Side: L R, LFE
Частота : 48,0 КГц
Частота кадров : 31,250 кадров/сек (1536 spf)
Битовая глубина : 16 бит
Метод сжатия : С потерями
Размер потока : 302 Мбайт (20%)
Выравнивание : Разделение по промежуткам
Продолжительность промежутка : 42 мс. (1,00 видеокадр)
Время предзагрузки промежутка : 500 мс.
ServiceKind/String : Complete Main

piratbit.org



Скачать Вдали от нее через торрент http://pic1.kartinco.top/images/11/j44xq.jpg Скачать фильм Вдали от нее через торрент бесплантно в хорошем качестве Описание: Фиона и Грант, супружеская пара из Онтарио, женаты уже более 40 лет. Теперь, когда жизнь клонится к закату, они вынуждены ... 5 10 1
Торрент: Зарегистрирован [2017-10-24 16:37] · скачан: 15 раз
Статус: √ проверено
Размер: 1.45 GB
Как cкачать? Как скачать Вдали от нее через торрент | qTorrent

% Раздел Тема Автор DL S | L
Фильмы 2006-2008 [ 1.45 GB ] Вдали от нее / Away from Her [2006 HDTVRip] DVO smaster Скачать
1 | 0

28-11-2019 20:33  

Отключить всю рекламу на сайте

    Дорогой пользователь! Огромная просьба, поблагодарите релизера, оцените раздачу и оставьте свои комментарий, если Вы скачали Вдали от нее через торрент бесплатно! Внесите свою лепту в развитие PiratBit!
    Комментировать посты могут только пользователи прошедшие не сложную регистрацию
    Показать сообщения:    

    Вдали от нее через торрент
    Скачать бесплатно Вдали от нее
    Вдали от нее скачать торрент
    Вдали от нее смотреть онлайн
    Cкачать фильм Вдали от нее бесплатно
    Вдали от нее скачать торрент в хорошем качестве
    Вдали от нее смотреть онлайн бесплатно в хорошем качестве


    Вы не можете начинать темы
    Вы не можете отвечать на сообщения
    Вы не можете редактировать свои сообщения
    Вы не можете удалять свои сообщения
    Вы не можете голосовать в опросах
    Вы не можете прикреплять файлы к сообщениям
    Вы можете скачивать файлы