Всегда рабочее зеркало просто перед .vidak.icu напиши любое слово или цифру, Пример http://b1n.vidak.icu

>

7.4

iTunes

7.4

2 сезон

9.4

1 сезон

1

7.4

2 сезон

7.2

iTunes

6.0

MVO

13

6.1

iTunes

8.3

Пиратка

30

ULTIMATE

pack

9.9

Лицензия

ВАЖНО

ИГРА 18+

pack

7.3

RePack

MK11

7.7

RePack

jed

7.8

RePack

fifa19

8.5

RePack

RDR2

RePack

NEED FOR SPEED™ PAYBACK

1 сезон

9 сезон

Бесстыжие 9 сезон

Все сериалы

все сериалы на PB.wtf

RePack

FAR CRY 5

Anonymous, добрый вечер, мы катастрофически не успеваем собрать деньги на оплату серверов, помогите нам пожалуйста 5,10,15р., для нас важна любая помощь . В качестве благодарности мы отключим Вам всю рекламу на сайте (укажите свой ник в строку Ваше имя)!

×
  
Magnet ссылка

Любовь в городе ангелов (Евгений Вихарев) [2017 г., комедия, WEB-DLRip] piratbit.org

Любовь в городе ангелов через торрент piratbit.org

Размер: 1.37 GB | Добавлен: 4 года 2 мес. назад | Торрент скачан:624 раза
Смотреть онлайн Любовь в городе ангелов | Скачать    Ребята, помогите собрать деньги на оплату серверов!!!

29-10-2017 05:37 Любовь в городе ангелов Скачать торрент  

Любовь в городе ангелов
Год выпуска: 2017
Страна: Россия
Жанр: комедия
Продолжительность: 01:22:36
Субтитры: Нет

Режиссер: Евгений Вихарев



В ролях: Наталья Рудова, Микаэл Арамян, Андрей Свиридов, Константин Лавиш

Описание: В Лос Анджелесе, в самом романтичном городе в мире, встретились два самых неромантичных человека — она на первом свидании выбросила его букет в помойку, а он поил ее самым невкусным кофе в городе. Она пришла на второе свидание в одном нижнем белье, а он обманул ее, так и не решившись безрассудно своровать для нее платье в магазине. И тем не менее, это были самые красивые несколько дней в жизни каждого из них.

Будет ли у этих отношений продолжение, ведь он даже имени ее не знает? В этом городе, на песочном берегу, конечно, возможно все. Океан нашепчет им мелодию любви и где, как не в Городе Ангелов поверить в настоящую любовь. Пусть даже и на несколько дней.

Доп. информация: Присутствует реклама!

Качество: WEB-DLRip
Формат: AVI
Видео кодек: XviD
Аудио кодек: AC3
Видео: XviD,720x304, 23.976 fps, 1975 kb/s
Аудио#1: AC3,384 kb/s, 2 ch, 48.0 KHz
скриншот   скриншот   скриншот   скриншот  

General
Complete name : H:\релизы.торрентфайл\lyubov-v-gorode-angelov.2O17.O.WEB-DLRip.14OOMB_KOSHARA.avi
Format : AVI
Format/Info : Audio Video Interleave
File size : 1.37 GiB
Duration : 1h 22mn
Overall bit rate : 2 369 Kbps
Writing application : VirtualDubMod 1.5.10.2 (build 2540/release)
Writing library : VirtualDubMod build 2540/release

Video
ID : 0
Format : MPEG-4 Visual
Format profile : Advanced Simple@L5
Format settings, BVOP : 2
Format settings, QPel : No
Format settings, GMC : No warppoints
Format settings, Matrix : Default (MPEG)
Codec ID : XVID
Codec ID/Hint : XviD
Duration : 1h 22mn
Bit rate : 1 976 Kbps
Width : 720 pixels
Height : 304 pixels
Display aspect ratio : 2.35:1
Frame rate : 23.976 fps
Color space : YUV
Chroma subsampling : 4:2:0
Bit depth : 8 bits
Scan type : Progressive
Compression mode : Lossy
Bits/(Pixel*Frame) : 0.376
Stream size : 1.14 GiB (83%)
Writing library : XviD 1.2.1 (UTC 2008-12-04)

Audio
ID : 1
Format : AC-3
Format/Info : Audio Coding 3
Mode extension : CM (complete main)
Format settings, Endianness : Big
Codec ID : 2000
Duration : 1h 22mn
Bit rate mode : Constant
Bit rate : 384 Kbps
Channel(s) : 2 channels
Channel positions : Front: L R
Sampling rate : 48.0 KHz
Bit depth : 16 bits
Compression mode : Lossy
Stream size : 227 MiB (16%)
Alignment : Split accross interleaves
Interleave, duration : 42 ms (1.00 video frame)
Interleave, preload duration : 500 ms

piratbit.org



Скачать Любовь в городе ангелов через торрент http://i91.fastpic.ru/big/2017/1003/dd/30ffa552534f87e6d1b3e057cce05add.png Скачать, смотреть онлайн Любовь в городе ангелов бесплантно в хорошем качестве Описание: В Лос Анджелесе, в самом романтичном городе в мире, встретились два самых неромантичных человека — она на первом свидании ... 9.2 10 16
Торрент: Зарегистрирован [2017-10-29 05:37] · скачан: 624 раз
Статус: T временная
Размер: 1.37 GB
Как cкачать? Как скачать Любовь в городе ангелов через торрент | UTorrent

% Раздел Тема Автор DL S | L
Наши фильмы 2017 [ 1.46 GB ] Любовь в городе ангелов [2017 BDRip] [Русский] [] Twi7ter Скачать
1 | 0
Наши фильмы 2017 [ 1.46 GB ] Любовь в городе ангелов [2017 BDRip от OlLanDGroup | GER Transfer] Skandar2019 Скачать
1 | 0
Наши фильмы 2017 [ 743 MB ] Любовь в городе ангелов [2017 BDRip от OlLanDGroup | GER Transfer] Skandar2019 Скачать
1 | 0

28-11-2019 20:33  

Отключить всю рекламу на сайте

    Дорогой пользователь! Огромная просьба, поблагодарите релизера, оцените раздачу и оставьте свои комментарий, если Вы скачали Любовь в городе ангелов через торрент бесплатно!
    Комментировать посты могут только пользователи прошедшие не сложную регистрацию
    Показать сообщения:    

    Любовь в городе ангелов через торрент
    Скачать бесплатно Любовь в городе ангелов
    Любовь в городе ангелов скачать торрент
    Любовь в городе ангелов смотреть онлайн
    Cкачать фильм Любовь в городе ангелов бесплатно
    Любовь в городе ангелов скачать торрент в хорошем качестве
    Любовь в городе ангелов смотреть онлайн бесплатно в хорошем качестве


    Вы не можете начинать темы
    Вы не можете отвечать на сообщения
    Вы не можете редактировать свои сообщения
    Вы не можете удалять свои сообщения
    Вы не можете голосовать в опросах
    Вы не можете прикреплять файлы к сообщениям
    Вы можете скачивать файлы