2 сезон

iTunes

WEBRip

1

2 сезон

iTunes

1 сезон

1 сезон

RePack

30

Новинка

ВАЖНО

ИГРА 18+

pack

RePack

MK11
pack

Легкие деньги

RePack

jed

RePack

fifa19

RePack

RDR2

RePack

NEED FOR SPEED™ PAYBACK

4 сезон

9 сезон

Бесстыжие 9 сезон

Все сериалы

все сериалы на PB.wtf

RePack

FAR CRY 5

Anonymous, доброй ночи, мы не успеваем собрать деньги на оплату серверов за февраль, помогите нам пожалуйста в это трудное время. В качестве благодарности мы отключим Вам всю рекламу на сайте (укажите свой ник в строку Ваше имя)!

×
  
Magnet ссылка

Порох / Gunpowder / Сезон: 1 / Серии 1-3 из 3 (Дж. Блэйксон) [2017, Драма, HDTVRip-AVC, WEBRip-AVC] [Ukr MVO] (ОМИКРОН) piratbit.org

Порох через торрент piratbit.org

Размер: 1.27 GB | Добавлен: 3 года 4 мес. назад | Торрент скачан:36 раз
Скачать  

29-10-2017 21:50 Порох Скачать торрент  

Порох / Gunpowder
Год выхода: 2017
Жанр: драма
Страна: Великобритания
Продолжительность: 3x ~01:00:00
Перевод: Украинский (профессиональный, многоголосый) *ОМИКРОН*

Режиссер: Дж. Блэйксон

В ролях: Марк Бёрнс, Martin Lindley, Дэннис О’Доннелл, Шон Ригби, Кит Харингтон, Питер Муллан, Дерек Ридделл, Шон Дули, Роберт Эммс, Марк Гейтисс

О фильме:
Начало семнадцатого века. Англия. В центре внимания сериала оказывается группа католиков, которые не могут больше терпеть Влacть короля Якова Первого. Тот ужесточает законы, которые касаются церкви и верующих. Отличная возможность покушения на короля выпадает на день, когда тот отправляется на заседание в Палату Лордов...



Качество: HDTVRip-AVC, WEBRip-AVC
Формат: MKV
Видео: 720x400 at 25 fps, MPEG-4 AVC, ~1000 kbps avg
Аудио: AAC, 48 kHz, 2 ch, ~128 Kbps

Релиз --
скриншот  скриншот  скриншот  скриншот  
General
Complete name : E:\Gunpowder (Season 1) (2017) HDTVRip-AVC [Hurtom]\Gunpowder.S01E01.HDTVRip.Ukr.uateam.tv.mp4
Format : MPEG-4
Codec ID : M4V (isom/avc1/iso6/M4A /M4V /mp42)
File size : 433 MiB
Duration : 58 min 40 s
Overall bit rate mode : Variable
Overall bit rate : 1 032 kb/s
Encoded date : UTC 2017-10-25 17:42:57
Tagged date : UTC 2017-10-25 17:42:57

Video
ID : 1
Format : AVC
Format/Info : Advanced Video Codec
Format profile : High@L4.1
Format settings : CABAC / 8 Ref Frames
Format settings, CABAC : Yes
Format settings, RefFrames : 8 frames
Codec ID : avc1
Codec ID/Info : Advanced Video Coding
Duration : 58 min 40 s
Bit rate : 900 kb/s
Maximum bit rate : 3 635 kb/s
Width : 720 pixels
Height : 400 pixels
Display aspect ratio : 2.40:1
Frame rate mode : Constant
Frame rate : 25.000 FPS
Color space : YUV
Chroma subsampling : 4:2:0
Bit depth : 8 bits
Scan type : Progressive
Bits/(Pixel*Frame) : 0.125
Stream size : 378 MiB (87%)
Writing library : x264 core 148 r2721kMod 72d53ab
Encoding settings : cabac=1 / ref=8 / deblock=1:0:0 / analyse=0x3:0x133 / me=umh / subme=9 / psy=1 / fade_compensate=0.00 / psy_rd=1.00:0.00 / mixed_ref=1 / me_range=16 / chroma_me=1 / trellis=2 / 8x8dct=1 / cqm=0 / deadzone=21,11 / fast_pskip=1 / chroma_qp_offset=-2 / threads=5 / lookahead_threads=1 / sliced_threads=0 / nr=0 / decimate=1 / interlaced=0 / bluray_compat=0 / constrained_intra=0 / fgo=0 / bframes=3 / b_pyramid=2 / b_adapt=2 / b_bias=0 / direct=3 / weightb=1 / open_gop=0 / weightp=2 / keyint=250 / keyint_min=25 / scenecut=40 / intra_refresh=0 / rc_lookahead=60 / rc=2pass / mbtree=1 / bitrate=900 / ratetol=1.0 / qcomp=0.60 / qpmin=0 / qpmax=69 / qpstep=4 / cplxblur=20.0 / qblur=0.5 / ip_ratio=1.40 / aq=1:1.00
Encoded date : UTC 2017-10-25 17:42:57
Tagged date : UTC 2017-10-25 17:43:05

Audio
ID : 2
Format : AAC
Format/Info : Advanced Audio Codec
Format profile : LC
Codec ID : mp4a-40-2
Duration : 58 min 40 s
Bit rate mode : Variable
Bit rate : 128 kb/s
Maximum bit rate : 137 kb/s
Channel(s) : 2 channels
Channel positions : Front: L R
Sampling rate : 48.0 kHz
Frame rate : 46.875 FPS (1024 SPF)
Compression mode : Lossy
Stream size : 53.7 MiB (12%)
Encoded date : UTC 2017-10-25 17:03:18
Tagged date : UTC 2017-10-25 17:43:05

piratbit.org



Скачать Порох через торрент http://i89.fastpic.ru/big/2017/1029/ea/a4efc2d995d44523ac651c6057767eea.jpg Скачать фильм Порох через торрент бесплантно в хорошем качестве О фильме:Начало семнадцатого века. Англия. В центре внимания сериала оказывается группа католиков, которые не могут больше терпеть Влacть ... 7.5 10 2
Торрент: Зарегистрирован [2017-10-29 21:50] · скачан: 36 раз
Статус: √ проверено
Размер: 1.27 GB
Как cкачать? Как скачать Порох через торрент | UTorrent

% Раздел Тема Автор DL S | L
Зарубежные сериалы [ 3.5 GB ] Порох / Gunpowder / Сезон: 1 / Серии 1-3 из 3 [2017 WEB-DL 720p] [DVO] [Кубик в Кубе] killermax2013 Скачать
1 | 0
Зарубежные сериалы [ 3.5 GB ] Порох / Gunpowder / Сезон: 1 / Серии 1-3 из 3 [2017 исторический WEBRip 720p] [MVO] killermax2013 Скачать
1 | 0
Зарубежные сериалы [ 6.61 GB ] Порох / Gunpowder / Сезон: 1 / Серии 1-3 из 3 [2017 исторический WEB-DL 1080p] [MVO] killermax2013 Скачать
1 | 0
Зарубежные сериалы [ 3.4 GB ] Порох / Gunpowder / Сезон: 1 / Серии 1-3 из 3 [2017 исторический WEB-DL 720p] [MVO] killermax2013 Скачать
1 | 0
Зарубежные сериалы [ 2.35 GB ] Порох / Gunpowder / Сезон 1 / Серии 1-3 из 3 [2017 HDTVRip] MVO [BaibaKo] bober100 Скачать
1 | 0
Зарубежные сериалы [ 5.2 GB ] Порох / Gunpowder / Сезон 1 / Серии 1-3 из 3 [2017 HDTVRip 720p] MVO [BaibaKo] bober100 Скачать
1 | 0

28-11-2019 20:33  

Отключить всю рекламу на сайте

    Дорогой пользователь! Огромная просьба, поблагодарите релизера, оцените раздачу и оставьте свои комментарий, если Вы скачали Порох через торрент бесплатно! Внесите свою лепту в развитие PiratBit!
    Комментировать посты могут только пользователи прошедшие не сложную регистрацию
    Показать сообщения:    

    Порох через торрент
    Скачать бесплатно Порох
    Порох скачать торрент
    Порох смотреть онлайн
    Cкачать фильм Порох бесплатно
    Порох скачать торрент в хорошем качестве
    Порох смотреть онлайн бесплатно в хорошем качестве


    Вы не можете начинать темы
    Вы не можете отвечать на сообщения
    Вы не можете редактировать свои сообщения
    Вы не можете удалять свои сообщения
    Вы не можете голосовать в опросах
    Вы не можете прикреплять файлы к сообщениям
    Вы можете скачивать файлы