Ссылка на приватное зеркало всего за 1$. Внимание количество ограничено!!!

iTunes

iTunes

iTunes

1

iTunes

iTunes

iTunes

iTunes

iTunes

30
pack

Новость дня

ВАЖНО

!!Акция!!

Alien_RageХит недели

RePack

Resident Evil 21

ИГРА 18+

pack

RePack

jed

!!Акция!!

Alien_Rage

RePack

fifa19

RePack

Assassins Creed: Odyssey

RePack

NEED FOR SPEED™ PAYBACK

4 сезон

9 сезон

Бесстыжие 9 сезон

Все сериалы

все сериалы на PB.wtf

RePack

FAR CRY 5
  

Рэй Донован / Ray Donovan / Сезон 5 / Серии 1-12 из 12 (Аллен Коултер) [2017, Драма, криминал, HDTVRip] MVO [HamsterStudio] piratbit.org

Рэй Донован через торрент piratbit.org

Размер: 7.98 GB | Добавлен: 2 года 5 мес. назад | Торрент скачан:50 раз
Скачать  

30-10-2017 09:48 Рэй Донован Скачать торрент  

Рэй Донован / Ray DonovanГод выпуска: 2017
Страна: США
Жанр: Драма, криминал
Продолжительность: 12 ~ 00:58:00
Перевод: Любительский (многоголосый) -
Субтитры: отсутствуют

Режиссер: Аллен Коултер

rating

В ролях:

Лив Шрайбер, Паула Малкомсон, Кэтрин Монниг, Пуч Холл, Кэррис Дорси, Девон Бэгби, Джон Войт, Стивен Бауэр, Уильям Стэнфорд Дэвис, Майкл МакГрэйди, Фрэнк Уэйли, Эллиотт Гулд, Октавиус Дж. Джонсон, Эмбир Чилдерс

Описание:

Рэй Донован - первоклассный специалист по устранению проблем любой сложности. Его клиенты - самые знаменитые и влиятельные люди Лос-Анджелеса, для которых он исполняет практически любые задания. Единственные проблемы, которые Рэю не под силу уладить, возникают в его собственной семье в Южном Бостоне. Одна из них - освобожденный из тюрьмы папаша-гангстер, угрожающий благополучию семейства. Помимо этого, один из братьев Рэя никак не может прийти в себя после совершенного над ним насилия, а второй страдает от болезни Паркинсона. Рэю Доновану предстоит не только помочь близким, но и защитить собственную жену и детей от своего коварного отца, который жаждет вновь занять позицию главы семьи.

Качество: HDTVRip
Формат: AVI
Видео кодек: XviD
Аудио кодек: MP3

Видео: XviD, ~ 1600 Кбит/с, 720x400
Аудио#1: Русский (МР3, 2 ch, 128 Кбит/с)

скриншот   скриншот   скриншот  

Общее
Полное имя : D:\Рэй Донован (Season 05) HamsterStudio\Ray.Donovan.s05e01.HDTVRip.HamsterStudio.Org.avi
Формат : AVI
Формат/Информация : Audio Video Interleave
Размер файла : 679 Мбайт
Продолжительность : 54 м. 28 с.
Общий поток : 1742 Кбит/сек
Программа кодирования : VirtualDubMod 1.5.10.3 | www.virtualdub-fr.org || (build 2550/release)
Библиотека кодирования : VirtualDubMod build 2550/release

Видео
Идентификатор : 0
Формат : MPEG-4 Visual
Профиль формата : Advanced Simple@L5
Параметр BVOP формата : 1
Параметр QPel формата : Нет
Параметр GMC формата : Без точки перехода
Параметр матрицы формата : Default (H.263)
Идентификатор кодека : XVID
Идентификатор кодека/Подсказка : XviD
Продолжительность : 54 м. 28 с.
Битрейт : 1604 Кбит/сек
Ширина : 720 пикселей
Высота : 400 пикселей
Соотношение сторон : 16:9
Частота кадров : 23,976 (23976/1000) кадра/сек
Цветовое пространство : YUV
Субдискретизация насыщенности : 4:2:0
Битовая глубина : 8 бит
Тип развёртки : Прогрессивная
Метод сжатия : С потерями
Бит/(Пиксели*Кадры) : 0.232
Размер потока : 625 Мбайт (92%)
Библиотека кодирования : XviD 1.2.1 (UTC 2008-12-04)

Аудио
Идентификатор : 1
Формат : MPEG Audio
Версия формата : Version 1
Профиль формата : Layer 3
Идентификатор кодека : 55
Идентификатор кодека/Подсказка : MP3
Продолжительность : 54 м. 28 с.
Вид битрейта : Постоянный
Битрейт : 128 Кбит/сек
Каналы : 2 канала
Частота : 48,0 КГц
Метод сжатия : С потерями
Размер потока : 49,9 Мбайт (7%)
Выравнивание : Соединение по промежуткам
Продолжительность промежутка : 42 мс. (1,00 видеокадр)
Время предзагрузки промежутка : 504 мс.
Библиотека кодирования : LAME3.99r
Настройки программы : -m s -V 4 -q 2 -lowpass 17 -b 128

piratbit.org



Скачать Рэй Донован через торрент http://s008.radikal.ru/i305/1710/f3/fdd78ba1bf55.jpg Скачать фильм Рэй Донован через торрент бесплантно в хорошем качестве Описание: Рэй Донован - первоклассный специалист по устранению проблем любой сложности. Его клиенты - самые знаменитые и влиятельные люди ... 10 10 4
Торрент: Зарегистрирован [2017-10-30 09:48] · скачан: 50 раз
Статус: √ проверено
Размер: 7.98 GB
Как cкачать? Как скачать Рэй Донован через торрент | qTorrent

% Раздел Тема Автор DL S | L
Рэй Донован [ 14.65 GB ] Рэй Донован / Ray Donovan / Сезон 5 / Серии 1-12 из 12 [2017 WEBRip 720p] MVO [BaibaKo] bober100 Скачать
1 | 0
Рэй Донован [ 7.47 GB ] Рэй Донован / Ray Donovan / Сезон: 5 / Серии 1-12 из 12 [2017 WEB-DLRip] MVO [NewStudio] GEKADOL Скачать
1 | 0
Рэй Донован [ 31.03 GB ] Рэй Донован / Ray Donovan / Сезон 5 / Серии 1-12 из 12 [2017 WEBRip 1080p] MVO [Jaskier] bober100 Скачать
1 | 0
Рэй Донован [ 7.38 GB ] Рэй Донован / Ray Donovan / Сезон 5 / Серии 1-12 из 12 [2017 WEBRip] DVO [Кубик в Кубе] bober100 Скачать
1 | 0
Рэй Донован [ 7.38 GB ] Рэй Донован / Ray Donovan / Сезон 5 / Серии 1-12 из 12 [2017 WEBRip] MVO [Jaskier] bober100 Скачать
1 | 0
Рэй Донован [ 12.06 GB ] Рэй Донован / Ray Donovan / Сезон 5 / Серии 1-12 из 12 [2017 WEBRip 720p] MVO [Jaskier] bober100 Скачать
1 | 0

28-11-2019 20:33  

Отключить всю рекламу на сайте

    Дорогой пользователь! Огромная просьба, поблагодарите релизера, оцените раздачу и оставьте свои комментарий, если Вы скачали Рэй Донован через торрент бесплатно! Внесите свою лепту в развитие PiratBit!
    Комментировать посты могут только пользователи прошедшие не сложную регистрацию
    Показать сообщения:    

    Рэй Донован через торрент
    Скачать бесплатно Рэй Донован
    Рэй Донован скачать торрент
    Рэй Донован смотреть онлайн
    Cкачать фильм Рэй Донован бесплатно
    Рэй Донован скачать торрент в хорошем качестве
    Рэй Донован смотреть онлайн бесплатно в хорошем качестве


    Вы не можете начинать темы
    Вы не можете отвечать на сообщения
    Вы не можете редактировать свои сообщения
    Вы не можете удалять свои сообщения
    Вы не можете голосовать в опросах
    Вы не можете прикреплять файлы к сообщениям
    Вы можете скачивать файлы