Ссылка на приватное зеркало всего за 1$. Внимание количество ограничено!!!

iTunes

iTunes

iTunes

1

iTunes

iTunes

iTunes

iTunes

iTunes

30
pack

Новость дня

ВАЖНО

!!Акция!!

Alien_RageХит недели

RePack

Resident Evil 21

ИГРА 18+

pack

RePack

jed

!!Акция!!

Alien_Rage

RePack

fifa19

RePack

Assassins Creed: Odyssey

RePack

NEED FOR SPEED™ PAYBACK

4 сезон

9 сезон

Бесстыжие 9 сезон

Все сериалы

все сериалы на PB.wtf

RePack

FAR CRY 5
  

Рэй Донован / Ray Donovan / Сезон 5 / Серии 1-12 из 12 (Аллен Коултер) [2017, Драма, криминал, WEBRip 720p] MVO [BaibaKo] piratbit.org

Рэй Донован через торрент piratbit.org

Размер: 14.65 GB | Добавлен: 2 года 5 мес. назад | Торрент скачан:36 раз
Скачать  

31-10-2017 11:51 Рэй Донован Скачать торрент  

Рэй Донован / Ray DonovanГод выпуска: 2017
Страна: США
Жанр: Драма, криминал
Продолжительность: 12 ~ 00:58:00
Перевод: Профессиональный многоголосый - [BaibaKo]
Субтитры: отсутствуют

Режиссер: Аллен Коултер

rating

В ролях:

Лив Шрайбер, Паула Малкомсон, Кэтрин Монниг, Пуч Холл, Кэррис Дорси, Девон Бэгби, Джон Войт, Стивен Бауэр, Уильям Стэнфорд Дэвис, Майкл МакГрэйди, Фрэнк Уэйли, Эллиотт Гулд, Октавиус Дж. Джонсон, Эмбир Чилдерс

Описание:

Рэй Донован - первоклассный специалист по устранению проблем любой сложности. Его клиенты - самые знаменитые и влиятельные люди Лос-Анджелеса, для которых он исполняет практически любые задания. Единственные проблемы, которые Рэю не под силу уладить, возникают в его собственной семье в Южном Бостоне. Одна из них - освобожденный из тюрьмы папаша-гангстер, угрожающий благополучию семейства. Помимо этого, один из братьев Рэя никак не может прийти в себя после совершенного над ним насилия, а второй страдает от болезни Паркинсона. Рэю Доновану предстоит не только помочь близким, но и защитить собственную жену и детей от своего коварного отца, который жаждет вновь занять позицию главы семьи.

Качество: WEBRip 720p
Формат: MKV
Видео кодек: H.264
Аудио кодек: AC3

Видео: MPEG-4 AVC, ~ 2 000 Кбит/с, 1280x720
Аудио#1: Русский (AC3, 6 ch, 640 Кбит/с)
Аудио#2: английский (AC3, 6 ch, 640 Кбит/с)
скриншот   скриншот  скриншот  

Общее
Уникальный идентификатор : 193911663936378864702786543651971184763 (0x91E2072BEEA6B70AA0635C9EDA4CB87B)
Полное имя : D:\Ray.Donovan.s05.HD720p.WEBRip.Rus.Eng.BaibaKo.tv\Ray.Donovan.s05e01.HD720p.WEBRip.Rus.Eng.BaibaKo.tv.mkv
Формат : Matroska
Версия формата : Version 4 / Version 2
Размер файла : 1,25 Гбайт
Продолжительность : 55 м. 34 с.
Общий поток : 3214 Кбит/сек
Дата кодирования : UTC 2017-08-07 20:18:52
Программа кодирования : mkvmerge v8.5.2 ('Crosses') 64bit
Библиотека кодирования : libebml v1.3.3 + libmatroska v1.4.4

Видео
Идентификатор : 1
Формат : AVC
Формат/Информация : Advanced Video Codec
Профиль формата : High@L3.1
Параметр CABAC формата : Да
Параметр ReFrames формата : 4 кадра
Идентификатор кодека : V_MPEG4/ISO/AVC
Продолжительность : 55 м. 34 с.
Битрейт : 1932 Кбит/сек
Ширина : 1280 пикселей
Высота : 720 пикселей
Соотношение сторон : 16:9
Режим частоты кадров : Постоянный
Частота кадров : 23,976 (24000/1001) кадра/сек
Цветовое пространство : YUV
Субдискретизация насыщенности : 4:2:0
Битовая глубина : 8 бит
Тип развёртки : Прогрессивная
Бит/(Пиксели*Кадры) : 0.087
Размер потока : 768 Мбайт (60%)
Библиотека кодирования : x264 core 152 r2851 ba24899
Настройки программы : cabac=1 / ref=3 / deblock=1:0:0 / analyse=0x3:0x113 / me=hex / subme=7 / psy=1 / psy_rd=1.00:0.00 / mixed_ref=1 / me_range=16 / chroma_me=1 / trellis=1 / 8x8dct=1 / cqm=0 / deadzone=21,11 / fast_pskip=1 / chroma_qp_offset=-2 / threads=12 / lookahead_threads=2 / sliced_threads=0 / nr=0 / decimate=1 / interlaced=0 / bluray_compat=0 / constrained_intra=0 / bframes=3 / b_pyramid=2 / b_adapt=1 / b_bias=0 / direct=1 / weightb=1 / open_gop=0 / weightp=2 / keyint=240 / keyint_min=23 / scenecut=40 / intra_refresh=0 / rc_lookahead=40 / rc=crf / mbtree=1 / crf=18.0 / qcomp=0.60 / qpmin=0 / qpmax=69 / qpstep=4 / ip_ratio=1.40 / aq=1:1.00
Default : Нет
Forced : Нет

Аудио #1
Идентификатор : 2
Формат : AC-3
Формат/Информация : Audio Coding 3
Расширение режима : CM (complete main)
Параметр Endianness формата : Big
Идентификатор кодека : A_AC3
Продолжительность : 55 м. 34 с.
Вид битрейта : Постоянный
Битрейт : 640 Кбит/сек
Каналы : 6 каналов
Расположение каналов : Front: L C R, Side: L R, LFE
Частота : 48,0 КГц
Частота кадров : 31,250 кадров/сек (1536 spf)
Метод сжатия : С потерями
Размер потока : 254 Мбайт (20%)
Язык : Russian
Default : Да
Forced : Нет

Аудио #2
Идентификатор : 3
Формат : AC-3
Формат/Информация : Audio Coding 3
Расширение режима : CM (complete main)
Параметр Endianness формата : Big
Идентификатор кодека : A_AC3
Продолжительность : 55 м. 34 с.
Вид битрейта : Постоянный
Битрейт : 640 Кбит/сек
Каналы : 6 каналов
Расположение каналов : Front: L C R, Side: L R, LFE
Частота : 48,0 КГц
Частота кадров : 31,250 кадров/сек (1536 spf)
Метод сжатия : С потерями
Размер потока : 254 Мбайт (20%)
Язык : English
Default : Нет
Forced : Нет

piratbit.org



Скачать Рэй Донован через торрент http://s008.radikal.ru/i305/1710/f3/fdd78ba1bf55.jpg Скачать фильм Рэй Донован через торрент бесплантно в хорошем качестве Описание: Рэй Донован - первоклассный специалист по устранению проблем любой сложности. Его клиенты - самые знаменитые и влиятельные люди ... 10 10 6
Info! Золотая раздача, скачанное не засчитывается.
Торрент: Зарегистрирован [2017-10-31 11:51] · скачан: 36 раз
Статус: √ проверено
Размер: 14.65 GB
Как cкачать? Как скачать Рэй Донован через торрент | qTorrent

% Раздел Тема Автор DL S | L
Рэй Донован [ 7.98 GB ] Рэй Донован / Ray Donovan / Сезон 5 / Серии 1-12 из 12 [2017 HDTVRip] MVO [HamsterStudio] bober100 Скачать
1 | 0
Рэй Донован [ 7.47 GB ] Рэй Донован / Ray Donovan / Сезон: 5 / Серии 1-12 из 12 [2017 WEB-DLRip] MVO [NewStudio] GEKADOL Скачать
1 | 0
Рэй Донован [ 31.03 GB ] Рэй Донован / Ray Donovan / Сезон 5 / Серии 1-12 из 12 [2017 WEBRip 1080p] MVO [Jaskier] bober100 Скачать
1 | 0
Рэй Донован [ 7.38 GB ] Рэй Донован / Ray Donovan / Сезон 5 / Серии 1-12 из 12 [2017 WEBRip] DVO [Кубик в Кубе] bober100 Скачать
1 | 0
Рэй Донован [ 7.38 GB ] Рэй Донован / Ray Donovan / Сезон 5 / Серии 1-12 из 12 [2017 WEBRip] MVO [Jaskier] bober100 Скачать
1 | 0
Рэй Донован [ 12.06 GB ] Рэй Донован / Ray Donovan / Сезон 5 / Серии 1-12 из 12 [2017 WEBRip 720p] MVO [Jaskier] bober100 Скачать
1 | 0

28-11-2019 20:33  

Отключить всю рекламу на сайте

    Дорогой пользователь! Огромная просьба, поблагодарите релизера, оцените раздачу и оставьте свои комментарий, если Вы скачали Рэй Донован через торрент бесплатно! Внесите свою лепту в развитие PiratBit!
    Комментировать посты могут только пользователи прошедшие не сложную регистрацию
    Показать сообщения:    

    Рэй Донован через торрент
    Скачать бесплатно Рэй Донован
    Рэй Донован скачать торрент
    Рэй Донован смотреть онлайн
    Cкачать фильм Рэй Донован бесплатно
    Рэй Донован скачать торрент в хорошем качестве
    Рэй Донован смотреть онлайн бесплатно в хорошем качестве


    Вы не можете начинать темы
    Вы не можете отвечать на сообщения
    Вы не можете редактировать свои сообщения
    Вы не можете удалять свои сообщения
    Вы не можете голосовать в опросах
    Вы не можете прикреплять файлы к сообщениям
    Вы можете скачивать файлы