Доктор Стрэндж

Лицензия

Добыча

MVO

Дом дракона

1 сезон

Тор

Лицензия

Мэверик

Лицензия

Там, где раки поют

MVO

Властелин колец

1 сезон

Ultimate

pack

Рекомендуем

30

Repack

ВАЖНО

ВАЖНО

Ghostwire

RePack

jed

RePack

nioh2

RePack

RDR2

RePack

NEED FOR SPEED™ PAYBACK

RePack

скачать торрент

Кинопоиск HD

Острые козырьки 6 сезон

6 сезон

FAR CRY 6

RePack

скачать торрент

Лицензия

скачать торрент

MVO

1

1 сезон

скачать торрент

1 сезон

скачать торрент

Лицензия

  

Мальчики (Суламифь Цыбульник) [1959, СССР, детский фильм, SATRip от AVP Studio]

Мальчики через торрент piratbit.org

Размер: 745 MB | Добавлен: 4 года 10 мес. назад | Торрент скачан:21 раз
Смотреть онлайн Мальчики | Скачать   

03-11-2017 08:48 Мальчики Скачать торрент  

Мальчики
Страна: СССР
Производство: К/ст им. Довженко

Жанр: детский фильм
Год выпуска: 1959
Продолжительность: 01:09:59

Перевод: Не требуется
Cубтитры: нет
Оригинальная аудиодорожка: русский

Режиссер: Суламифь Цыбульник

В ролях:
Лёня Бабич, Николай Чурсин, Саша Карпов, Лидия Сухаревская, Александр Гумбург, Николай Дупак, Гертруда Двойникова, Валентин Грудинин, Елена Машкара, Наташа Черноусова, Анатолий Зайцев...
Об актёрах подробней

Описание:
Киевские школьники Петя, Игорь и Тимка учатся в одном классе и живут в одном доме. Игорь и Петя – неразлучные друзья. Тимка более замкнут, чем его сверстники. После смерти отца – героя-лётчика, он живёт с мачехой, женщиной нечуткой и ограниченной. То, что жизнь Тимки сложилась не по-детски трудно, сделало его непримиримым ко всякому проявлению избалованности.

Источник: DVB
Качество видео: SATRip
Формат видео: AVI

Видео: 704x528 (4:3), 25 fps, XviD ~ 1287 kbps avg, 0.138 bit/pixel
Аудио: 48 kHz, Dolby Digital AC3 2.0, 192 kbps

Раздача от:
Общее
Полное имя : Malchiki.1959.SATRip_[New-team]_by_AVP_Studio.avi
Формат : AVI
Формат/Информация : Audio Video Interleave
Размер файла : 745 Мбайт
Продолжительность : 1 ч. 9 м.
Общий поток : 1489 Кбит/сек
Программа кодирования : VirtualDubMod 1.5.10.3 | www.virtualdub-fr.org || (build 2550/release)
Библиотека кодирования : VirtualDubMod build 2550/release

Видео
Идентификатор : 0
Формат : MPEG-4 Visual
Профиль формата : Advanced Simple@L5
Параметр BVOP формата : 1
Параметр QPel формата : Нет
Параметр GMC формата : Без точки перехода
Параметр матрицы формата : Выборочная
Идентификатор кодека : XVID
Идентификатор кодека/Подсказка : XviD
Продолжительность : 1 ч. 9 м.
Битрейт : 1287 Кбит/сек
Ширина : 704 пикселя
Высота : 528 пикселей
Соотношение сторон : 4:3
Частота кадров : 25,000 кадров/сек
Цветовое пространство : YUV
Субдискретизация насыщенности : 4:2:0
Битовая глубина : 8 бит
Тип развёртки : Прогрессивная
Метод сжатия : С потерями
Бит/(Пиксели*Кадры) : 0.138
Размер потока : 644 Мбайт (86%)
Библиотека кодирования : XviD 73

Аудио
Идентификатор : 1
Формат : AC-3
Формат/Информация : Audio Coding 3
Параметр Endianness формата : Big
Идентификатор кодека : 2000
Продолжительность : 1 ч. 9 м.
Вид битрейта : Постоянный
Битрейт : 192 Кбит/сек
Каналы : 2 канала
Расположение каналов : Front: L R
Частота : 48,0 КГц
Частота кадров : 31,250 кадров/сек (1536 SPF)
Битовая глубина : 16 бит
Метод сжатия : С потерями
Размер потока : 96,1 Мбайт (13%)
Выравнивание : Разделение по промежуткам
Продолжительность промежутка : 40 мс. (1,00 видеокадр)
Время предзагрузки промежутка : 500 мс



Скачать Мальчики через торрент http://s018.radikal.ru/i524/1711/33/193b41f30fb3.png Скачать, смотреть онлайн Мальчики бесплантно в хорошем качестве Описание:Киевские школьники Петя, Игорь и Тимка учатся в одном классе и живут в одном доме. Игорь и Петя – неразлучные друзья. Тимка более ... 5 10 1
Info! Золотая раздача, скачанное не засчитывается.
Торрент: Зарегистрирован [2017-11-03 08:48] · скачан: 21 раз
Статус: √ проверено
Размер: 745 MB
Как cкачать? Как скачать Мальчики через торрент | UTorrent

% Раздел Тема Автор DL S | L
Кино СССР [ 745 MB ] Мальчики | | SATRip-AVC от AVP Studio AVP Studio Скачать
1 | 0

28-11-2019 20:33  

Отключить вcю реклaмy на сайте

    Дорогой пользователь! Огромная просьба, поблагодарите релизера, оцените раздачу и оставьте свои комментарий, если Вы скачали Мальчики через торрент бесплатно!!
    Комментировать посты могут только пользователи прошедшие не сложную регистрацию
    Показать сообщения:    


    Мальчики через торрент
    Скачать бесплатно Мальчики
    Мальчики скачать торрент
    Мальчики смотреть онлайн
    Cкачать фильм Мальчики бесплатно
    Мальчики скачать торрент в хорошем качестве
    Мальчики смотреть онлайн бесплатно в хорошем качестве
    Вы не можете начинать темы
    Вы не можете отвечать на сообщения
    Вы не можете редактировать свои сообщения
    Вы не можете удалять свои сообщения
    Вы не можете голосовать в опросах
    Вы не можете прикреплять файлы к сообщениям
    Вы можете скачивать файлы