2 сезон

iTunes

WEBRip

1

2 сезон

iTunes

1 сезон

1 сезон

RePack

30

Ultimate

ВАЖНО

ИГРА 18+

pack

RePack

MK11
pack

Легкие деньги

RePack

jed

RePack

fifa19

RePack

RDR2

RePack

NEED FOR SPEED™ PAYBACK

4 сезон

9 сезон

Бесстыжие 9 сезон

Все сериалы

все сериалы на PB.wtf

RePack

FAR CRY 5

Anonymous, доброй ночи, мы не успеваем собрать деньги на оплату серверов за февраль, помогите нам пожалуйста в это трудное время. В качестве благодарности мы отключим Вам всю рекламу на сайте (укажите свой ник в строку Ваше имя)!

×
  
Magnet ссылка

Валериан и город тысячи планет / Valerian and the City of a Thousand Planets (Люк Бессон) [2017, фантастика, боевик, приключения, WEB-DL 1080p] [Ukr Dub] [Line] piratbit.org

Валериан и город тысячи планет через торрент piratbit.org

Размер: 4.87 GB | Добавлен: 3 года 4 мес. назад | Торрент скачан:273 раза
Скачать  

03-11-2017 17:38 Валериан и город тысячи планет Скачать торрент  

Валериан и город тысячи планет / Valerian and the City of a Thousand Planets

Год выхода : 2017
Жанр : фантастика, боевик, приключения
Страна : Франция
Производство : EuropaCorp, Fundamental Films, Grive Productions, Gulf Films
Продолжительность : 02:16:47
Перевод : Украинский (дублированный)
Субтитры : английские

Режиссер : Люк Бессон

В главных ролях : Кара Делевинь, Итан Хоук, Джон Гудман, Дэйн ДеХаан, Клайв Оуэн, Рутгер Хауэр, Рианна, Крис У, Александр Нгуйен, Матьё Кассовиц

Описание : 2700 год, Валериан и Лорелин — космические спецагенты, которые по долгу службы впутались в подозрительное дело и стали невольными участниками то ли межгалактического заговора, то ли аферы самых причудливых обитателей планеты Альфа, где живут тысячи обитателей различных миров со всех уголков галактики.



Качество : WEB-DL 1080p
Формат видео : MKV
Видео : AVC, 1920x804, 23.976 fps, ~4502 kbps avg
Аудио №1 : 48 kHz, AC3 Dolby Digital, 2 ch, ~192 kbps [Ukr DUB]
Аудио №2 : 48 kHz, AC3 Dolby Digital, 6 ch, ~384 kbps [Eng]

Релиз --
General
Unique ID : 246677994990600931479071311911504330902 (0xB9947426D27DF883BDEAC5661D744096)
Complete name : F:\Valerian and the City of a Thousand Planets (2017) WEB-DL 1080p [UKR_ENG] [Hurtom].mkv
Format : Matroska
Format version : Version 4 / Version 2
File size : 4.87 GiB
Duration : 2 h 17 min
Overall bit rate : 5 081 kb/s
Encoded date : UTC 2017-11-03 12:37:31
Writing application : mkvmerge v17.0.0 ('Be Ur Friend') 64-bit
Writing library : libebml v1.3.5 + libmatroska v1.4.8

Video
ID : 4
Format : AVC
Format/Info : Advanced Video Codec
Format profile : High@L4
Format settings : CABAC / 5 Ref Frames
Format settings, CABAC : Yes
Format settings, RefFrames : 5 frames
Codec ID : V_MPEG4/ISO/AVC
Duration : 2 h 17 min
Bit rate : 4 403 kb/s
Width : 1 920 pixels
Height : 804 pixels
Display aspect ratio : 2.40:1
Frame rate mode : Constant
Frame rate : 24.000 FPS
Color space : YUV
Chroma subsampling : 4:2:0
Bit depth : 8 bits
Scan type : Progressive
Bits/(Pixel*Frame) : 0.119
Stream size : 4.22 GiB (87%)
Title : Full
Language : English
Default : No
Forced : No
Color range : Limited
Color primaries : BT.709
Transfer characteristics : BT.709
Matrix coefficients : BT.709

Audio #1
ID : 2
Format : AC-3
Format/Info : Audio Coding 3
Format settings, Endianness : Big
Codec ID : A_AC3
Duration : 2 h 17 min
Bit rate mode : Constant
Bit rate : 192 kb/s
Channel(s) : 2 channels
Channel positions : Front: L R
Sampling rate : 48.0 kHz
Frame rate : 31.250 FPS (1536 SPF)
Bit depth : 16 bits
Compression mode : Lossy
Stream size : 189 MiB (4%)
Title : AC3 2.0 @ 192 kbps - DUB, Line
Language : Ukrainian
Service kind : Complete Main
Default : Yes
Forced : Yes

Audio #2
ID : 3
Format : AC-3
Format/Info : Audio Coding 3
Format settings, Endianness : Big
Codec ID : A_AC3
Duration : 2 h 17 min
Bit rate mode : Constant
Bit rate : 384 kb/s
Channel(s) : 6 channels
Channel positions : Front: L C R, Side: L R, LFE
Sampling rate : 48.0 kHz
Frame rate : 31.250 FPS (1536 SPF)
Bit depth : 16 bits
Compression mode : Lossy
Stream size : 377 MiB (8%)
Title : Original
Language : English
Service kind : Complete Main
Default : No
Forced : No

Text
ID : 1
Format : UTF-8
Codec ID : S_TEXT/UTF8
Codec ID/Info : UTF-8 Plain Text
Language : English
Default : Yes
Forced : Yes

Menu
00:00:00.000 : en:1
00:08:26.083 : en:2
00:16:55.041 : en:3
00:24:21.373 : en:4
00:28:59.123 : en:5
00:36:54.372 : en:6
00:43:20.455 : en:7
00:50:36.996 : en:8
00:59:37.579 : en:9
01:06:37.037 : en:10
01:13:36.702 : en:11
01:20:22.659 : en:12
01:28:10.825 : en:13
01:35:50.575 : en:14
01:41:11.616 : en:15
01:50:35.616 : en:16
01:58:23.532 : en:17
02:03:33.239 : en:18
piratbit.org



Скачать Валериан и город тысячи планет через торрент http://i97.fastpic.ru/big/2017/1103/3e/0e652e318af63c6921c520ba2714963e.jpg Скачать фильм Валериан и город тысячи планет через торрент бесплантно в хорошем качестве Описание : 2700 год, Валериан и Лорелин — космические спецагенты, которые по долгу службы впутались в подозрительное дело и стали ... 9.9 10 11
Info! Золотая раздача, скачанное не засчитывается.
Торрент: Зарегистрирован [2017-11-03 17:38] · скачан: 273 раз
Статус: √ проверено
Размер: 4.87 GB
Как cкачать? Как скачать Валериан и город тысячи планет через торрент | UTorrent

% Раздел Тема Автор DL S | L
Фильмы (HD 720p, 1080p) (48-60 fps) [ 5.92 GB ] Валериан и город тысячи планет / Valerian and the City of a Thousand Planets [2017 BDRip 720p 60 fps от еnvy / NNNB] NOR-Transfer | DUB еnvy Скачать
12 | 0
Ultra HD (UHD: 2K, 4K, 8K) — видео сверхвысокой чёткости [ 59.55 GB ] Валериан и город тысячи планет / Valerian and the City of a Thousand Planets [2017 UHD Blu-ray 2160p] - [] sheker187 Скачать
1 | 0
Ultra HD (UHD: 2K, 4K, 8K) — видео сверхвысокой чёткости [ 51.03 GB ] Валериан и город тысячи планет / Valerian and the City of a Thousand Planets [2017 UHD BDRemux 2160p] DUB [Dolby Vision] sheker187 Скачать
1 | 0
Фильмы (HD 720p, 1080p) (48-60 fps) [ 20.2 GB ] Валериан и город тысячи планет / Valerian and the City of a Thousand Planets [2017 NOR-Transfer BDRip 1080p / 60 FPS Dub Original] Tiberiumsun69 Скачать
3 | 0
Фильмы с авторской озвучкой [ 2.75 GB ] Валериан и город тысячи планет / Valerian and the City of a Thousand Planets [2017 BDRip] 2x[AVO] killermax2013 Скачать
1 | 0
Фильмы [HD 720p, 1080p] (Хороший звук DUB, MVO) [ 6.14 GB ] Валериан и город тысячи планет / Valerian and the City of a Thousand Planets [2017 BDRip 720p] [NOR-Transfer] DUB [] potroks Скачать
1 | 0
Фильмы [HD 720p, 1080p] (Хороший звук DUB, MVO) [ 8.18 GB ] Валериан и город тысячи планет / Valerian and the City of a Thousand Planets [2017 BDRip-HEVC 1080p] [] + [AVO] killermax2013 Скачать
1 | 0

28-11-2019 20:33  

Отключить всю рекламу на сайте


04-11-2017 13:20 Валериан и город тысячи планет Скачать торрент  

Плохо что музыка сильно тихо в укр озвучке... Не то пальто, надо что-то исправлять. Так ждал, чтоб после кинотеатра дома еще пару раз посмотреть и печалька.piratbit.org



04-11-2017 14:39 Валериан и город тысячи планет Скачать торрент  

AliQ, переключитесь на англ дорожку и слушайте музыку Мне наоборот не нравится когда диалоги приглушенно идут а зато как музыка и всякие взрывы то можно оглохнутьpiratbit.org



04-11-2017 17:05 Валериан и город тысячи планет Скачать торрент  

Как по мне то 5 из 10. Больше бы динамики меньше ненужных диалогов. Фантастику люблю но это фильм незашол, спецэффекты отличные . 5 Элемент пересматриваю каждый год этот наврятли. Да и название не очень.piratbit.org



06-11-2017 08:48 Валериан и город тысячи планет Скачать торрент  

k144 писал(а):

Как по мне то 5 из 10. Больше бы динамики меньше ненужных диалогов. Фантастику люблю но это фильм незашол, спецэффекты отличные . 5 Элемент пересматриваю каждый год этот наврятли. Да и название не очень.

Полностью согласен, дико занудный фильм максимум тянет на 4 из 10 и то только из за игры Кары Делевинь. Герой главный вообще как школьникpiratbit.org



    Дорогой пользователь! Огромная просьба, поблагодарите релизера, оцените раздачу и оставьте свои комментарий, если Вы скачали Валериан и город тысячи планет через торрент бесплатно! Внесите свою лепту в развитие PiratBit!
    Комментировать посты могут только пользователи прошедшие не сложную регистрацию
    Показать сообщения:    

    Валериан и город тысячи планет через торрент
    Скачать бесплатно Валериан и город тысячи планет
    Валериан и город тысячи планет скачать торрент
    Валериан и город тысячи планет смотреть онлайн
    Cкачать фильм Валериан и город тысячи планет бесплатно
    Валериан и город тысячи планет скачать торрент в хорошем качестве
    Валериан и город тысячи планет смотреть онлайн бесплатно в хорошем качестве


    Вы не можете начинать темы
    Вы не можете отвечать на сообщения
    Вы не можете редактировать свои сообщения
    Вы не можете удалять свои сообщения
    Вы не можете голосовать в опросах
    Вы не можете прикреплять файлы к сообщениям
    Вы можете скачивать файлы