Достать ножи: Стеклянная луковица

MVO

Добыча

Дубляж

Уэнсдэй

1 сезон

Тор

Дубляж

13 клиническая

1 сезон

Жестокая ночь

MVO

Одни из нас

1 сезон

Deluxe

pack

Рекомендуем

30

Пиратка

ВАЖНО

ВАЖНО

Ghostwire

Пиратка

jed

RePack

nioh2

RePack

RDR2

RePack

NEED FOR SPEED™ PAYBACK

RePack

скачать торрент

Кинопоиск HD

Острые козырьки 6 сезон

6 сезон

FAR CRY 6

RePack

скачать торрент

Лицензия

скачать торрент

MVO

1

1 сезон

скачать торрент

1 сезон

скачать торрент

Лицензия

  

Джон Уик / John Wick (Дэвид Лейтч, Чад Стахелски) [2014, Боевик, триллер, UHD BDRemux 2160p] Дубляж+5xAVO [Лицензия]

Джон Уик через торрент piratbit.org

Размер: 61.57 GB | Добавлен: 5 лет 3 мес. назад | Торрент скачан:119 раз
Смотреть онлайн | Скачать | Поддержите нас   

03-11-2017 22:30 Джон Уик Скачать торрент  

Джон Уик / John WickГод выпуска: 2014
Страна: Китай, Канада, США
Жанр: Боевик, триллер
Продолжительность: 01:41:11

Перевод:

#1: Дублированный
#2: Авторский | Гаврилов
#3: Авторский | Живов
#4: Авторский | Володарский
#5: Авторский | Матвеев
#6: Авторский | Есарев

Субтитры: Русские (forced, full), украинские, английские

Режиссер: Дэвид Лейтч, Чад Стахелски

rating

В ролях:

Киану Ривз, Микаэл Нюквист, Элфи Оуэн-Аллен, Уиллем Дефо, Дин Уинтерс, Эдрианн Палики, Омер Барнеа, Тоби Мур, Дэниэл Бернхард, Бриджет Мойнэхэн, Джон Легуизамо, Иэн МакШейн, Бриджет Риган, Лэнс Реддик, Кит Джардин, Тейт Флетчер, Кази Таугинас, Александр Фрекей, Томас Садоски, Рэндолл Дак Ким

Описание:

Джон Уик на первый взгляд самый обычный среднестатистический американец, который ведет спокойную мирную жизнь. Однако мало кто знает, что в свое время он был наемным убийцей, причем одним из лучших профессионалов в своем деле. После того, как преступник угоняет его любимый «Мустанг», 1969 года выпуска, при этом убив его собаку Дейзи, которая была единственным напоминанием об умершей супруге, Джон вынужден вернуться к своему прошлому. Теперь Уик начинает охоту на человека, который имел неосторожность перейти ему дорогу, и он готов на все, чтобы отомстить ему…

Качество: UHD BDRemux 2160p
Формат: MKV
Видео кодек: HEVC
Аудио кодек: AC3/DTS-HD MA

Видео: MPEG-H HEVC HDR Video, 3840x2160, 58.0 Mbit/s, 23.976 fps
Аудио#1: 48 kHz, AC3, 5.1, 448 Kbps | Дублированный | RUS |
Аудио#2: 48 kHz, DTS-HD MA, 7.1, 4218 Kbps | Авторский | RUS |
Аудио#3: 48 kHz, DTS-HD MA, 7.1, 5292 Kbps | Авторский | RUS |
Аудио#4: 48 kHz, DTS-HD MA, 7.1, 4421 Kbps | Авторский | RUS |
Аудио#5: 48 kHz, DTS-HD MA, 7.1, 5283 Kbps | Авторский | RUS |
Аудио#6: 48 kHz, DTS-HD MA, 7.1, 5278 Kbps | Авторский | RUS |
Аудио#7: 48 kHz, DTS-HD MA, 7.1, 4178 Kbps | Оригинал | ENG |

Релиз от:
Присутствует ненормативная лексика.

скриншот  скриншот  скриншот  скриншот  скриншот  

General
Unique ID : 234068818938019184077715301123379506831 (0xB01803C6436A6EF699E3FB6BD58D2E8F)
Complete name : G:VideoSSDJohn.Wick.2014.BDREMUX.2160p.4K.UltraHD.HEVC.HDR.ExKinoRay.mkv
Format : Matroska
Format version : Version 4 / Version 2
File size : 61.6 GiB
Duration : 1 h 41 min
Overall bit rate : 87.1 Mb/s
Movie name : Release by ExKinoRay
Encoded date : UTC 2017-11-03 20:58:53
Writing application : mkvmerge v17.0.0 ('Be Ur Friend') 64-bit
Writing library : libebml v1.3.5 + libmatroska v1.4.8
Cover : Yes
Attachments : cover.jpg

Video
ID : 1
Format : HEVC
Format/Info : High Efficiency Video Coding
Format profile : Main 10@L5.1@High
Codec ID : V_MPEGH/ISO/HEVC
Duration : 1 h 41 min
Bit rate : 58.0 Mb/s
Width : 3 840 pixels
Height : 2 160 pixels
Display aspect ratio : 16:9
Frame rate mode : Constant
Frame rate : 23.976 (24000/1001) FPS
Color space : YUV
Chroma subsampling : 4:2:0 (Type 2)
Bit depth : 10 bits
Bits/(Pixel*Frame) : 0.292
Stream size : 41.0 GiB (67%)
Writing library : ATEME Titan File 3.7.9 (4.7.9.0)
Language : English
Default : Yes
Forced : No
Color range : Limited
Color primaries : BT.2020
Transfer characteristics : PQ
Matrix coefficients : BT.2020 non-constant
Mastering display color pri : R: x=0.680000 y=0.320000, G: x=0.265000 y=0.690000, B: x=0.150000 y=0.060000, White point: x=0.312700 y=0.329000
Mastering display luminance : min: 0.0000 cd/m2, max: 1000.0000 cd/m2
Maximum Content Light Level : 1000 cd/m2
Maximum Frame-Average Light : 169 cd/m2

Audio #1
ID : 2
Format : AC-3
Format/Info : Audio Coding 3
Format settings, Endianness : Big
Codec ID : A_AC3
Duration : 1 h 41 min
Bit rate mode : Constant
Bit rate : 448 kb/s
Channel(s) : 6 channels
Channel positions : Front: L C R, Side: L R, LFE
Sampling rate : 48.0 kHz
Frame rate : 31.250 FPS (1536 SPF)
Bit depth : 16 bits
Compression mode : Lossy
Stream size : 324 MiB (1%)
Title : Дубляж
Language : Russian
Service kind : Complete Main
Default : Yes
Forced : No

Audio #2
ID : 3
Format : DTS
Format/Info : Digital Theater Systems
Format profile : MA / Core
Mode : 16
Format settings, Endianness : Big
Codec ID : A_DTS
Duration : 1 h 41 min
Bit rate mode : Variable / Constant
Bit rate : 4 218 kb/s / 1 509 kb/s
Channel(s) : 8 channels / 6 channels
Channel positions : Front: L C R, Side: L R, Back: L R, LFE / Front: L C R, Side: L R, LFE
Sampling rate : 48.0 kHz
Frame rate : 93.750 FPS (512 SPF)
Bit depth : 24 bits
Compression mode : Lossless / Lossy
Stream size : 2.98 GiB (5%)
Title : AVO [Гаврилов]
Language : Russian
Default : No
Forced : No

Audio #3
ID : 4
Format : DTS
Format/Info : Digital Theater Systems
Format profile : MA / Core
Mode : 16
Format settings, Endianness : Big
Codec ID : A_DTS
Duration : 1 h 41 min
Bit rate mode : Variable / Constant
Bit rate : 5 292 kb/s / 1 509 kb/s
Channel(s) : 8 channels / 6 channels
Channel positions : Front: L C R, Side: L R, Back: L R, LFE / Front: L C R, Side: L R, LFE
Sampling rate : 48.0 kHz
Frame rate : 93.750 FPS (512 SPF)
Bit depth : 24 bits
Compression mode : Lossless / Lossy
Stream size : 3.74 GiB (6%)
Title : AVO [Живов]
Language : Russian
Default : No
Forced : No

Audio #4
ID : 5
Format : DTS
Format/Info : Digital Theater Systems
Format profile : MA / Core
Mode : 16
Format settings, Endianness : Big
Codec ID : A_DTS
Duration : 1 h 41 min
Bit rate mode : Variable / Constant
Bit rate : 4 421 kb/s / 1 509 kb/s
Channel(s) : 8 channels / 6 channels
Channel positions : Front: L C R, Side: L R, Back: L R, LFE / Front: L C R, Side: L R, LFE
Sampling rate : 48.0 kHz
Frame rate : 93.750 FPS (512 SPF)
Bit depth : 24 bits
Compression mode : Lossless / Lossy
Stream size : 3.13 GiB (5%)
Title : AVO [Володарский]
Language : Russian
Default : No
Forced : No

Audio #5
ID : 6
Format : DTS
Format/Info : Digital Theater Systems
Format profile : MA / Core
Mode : 16
Format settings, Endianness : Big
Codec ID : A_DTS
Duration : 1 h 41 min
Bit rate mode : Variable / Constant
Bit rate : 5 283 kb/s / 1 509 kb/s
Channel(s) : 8 channels / 6 channels
Channel positions : Front: L C R, Side: L R, Back: L R, LFE / Front: L C R, Side: L R, LFE
Sampling rate : 48.0 kHz
Frame rate : 93.750 FPS (512 SPF)
Bit depth : 24 bits
Compression mode : Lossless / Lossy
Stream size : 3.73 GiB (6%)
Title : AVO [Матвеев]
Language : Russian
Default : No
Forced : No

Audio #6
ID : 7
Format : DTS
Format/Info : Digital Theater Systems
Format profile : MA / Core
Mode : 16
Format settings, Endianness : Big
Codec ID : A_DTS
Duration : 1 h 41 min
Bit rate mode : Variable / Constant
Bit rate : 5 278 kb/s / 1 509 kb/s
Channel(s) : 8 channels / 6 channels
Channel positions : Front: L C R, Side: L R, Back: L R, LFE / Front: L C R, Side: L R, LFE
Sampling rate : 48.0 kHz
Frame rate : 93.750 FPS (512 SPF)
Bit depth : 24 bits
Compression mode : Lossless / Lossy
Stream size : 3.73 GiB (6%)
Title : AVO [Есарев]
Language : Russian
Default : No
Forced : No

Audio #7
ID : 8
Format : DTS
Format/Info : Digital Theater Systems
Format profile : MA / Core
Mode : 16
Format settings, Endianness : Big
Codec ID : A_DTS
Duration : 1 h 41 min
Bit rate mode : Variable / Constant
Bit rate : 4 178 kb/s / 1 509 kb/s
Channel(s) : 8 channels / 6 channels
Channel positions : Front: L C R, Side: L R, Back: L R, LFE / Front: L C R, Side: L R, LFE
Sampling rate : 48.0 kHz
Frame rate : 93.750 FPS (512 SPF)
Bit depth : 24 bits
Compression mode : Lossless / Lossy
Stream size : 2.95 GiB (5%)
Title : Original
Language : English
Default : No
Forced : No

Text #1
ID : 9
Format : UTF-8
Codec ID : S_TEXT/UTF8
Codec ID/Info : UTF-8 Plain Text
Duration : 1 h 13 min
Bit rate : 3 b/s
Count of elements : 54
Stream size : 1.97 KiB (0%)
Title : Forced
Language : Russian
Default : Yes
Forced : No

Text #2
ID : 10
Format : UTF-8
Codec ID : S_TEXT/UTF8
Codec ID/Info : UTF-8 Plain Text
Duration : 1 h 34 min
Bit rate : 39 b/s
Count of elements : 618
Stream size : 27.2 KiB (0%)
Title : Full
Language : Russian
Default : No
Forced : No

Text #3
ID : 11
Format : UTF-8
Codec ID : S_TEXT/UTF8
Codec ID/Info : UTF-8 Plain Text
Duration : 1 h 34 min
Bit rate : 39 b/s
Count of elements : 618
Stream size : 27.1 KiB (0%)
Title : Full [Uncensored] Матвеев
Language : Russian
Default : No
Forced : No

Text #4
ID : 12
Format : UTF-8
Codec ID : S_TEXT/UTF8
Codec ID/Info : UTF-8 Plain Text
Duration : 1 h 34 min
Bit rate : 39 b/s
Count of elements : 619
Stream size : 27.2 KiB (0%)
Title : Full [Censored] Матвеев
Language : Russian
Default : No
Forced : No

Text #5
ID : 13
Format : UTF-8
Codec ID : S_TEXT/UTF8
Codec ID/Info : UTF-8 Plain Text
Duration : 1 h 33 min
Bit rate : 38 b/s
Count of elements : 618
Stream size : 26.7 KiB (0%)
Title : Full
Language : Ukrainian
Default : No
Forced : No

Text #6
ID : 14
Format : UTF-8
Codec ID : S_TEXT/UTF8
Codec ID/Info : UTF-8 Plain Text
Duration : 1 h 33 min
Bit rate : 21 b/s
Count of elements : 554
Stream size : 14.9 KiB (0%)
Title : Full
Language : English
Default : No
Forced : No

Text #7
ID : 15
Format : UTF-8
Codec ID : S_TEXT/UTF8
Codec ID/Info : UTF-8 Plain Text
Duration : 1 h 40 min
Bit rate : 31 b/s
Count of elements : 874
Stream size : 23.2 KiB (0%)
Title : SDH
Language : English
Default : No
Forced : No

Text #8
ID : 16
Format : UTF-8
Codec ID : S_TEXT/UTF8
Codec ID/Info : UTF-8 Plain Text
Duration : 1 h 40 min
Bit rate : 41 b/s
Count of elements : 874
Stream size : 30.6 KiB (0%)
Title : SDH Colored
Language : English
Default : No
Forced : No

Menu
00:00:00.000 : en:Chapter 01
00:04:57.504 : en:Chapter 02
00:12:21.865 : en:Chapter 03
00:17:07.733 : en:Chapter 04
00:26:25.165 : en:Chapter 05
00:32:40.249 : en:Chapter 06
00:36:24.596 : en:Chapter 07
00:42:16.032 : en:Chapter 08
00:45:33.270 : en:Chapter 09
00:55:02.506 : en:Chapter 10
00:59:27.563 : en:Chapter 11
01:06:13.427 : en:Chapter 12
01:14:15.908 : en:Chapter 13
01:19:13.037 : en:Chapter 14
01:27:29.786 : en:Chapter 15
01:32:24.787 : en:Chapter 16
01:41:12.649 : en:Chapter 17




Скачать Джон Уик через торрент http://s009.radikal.ru/i309/1711/5e/ce44d6107386.jpg Скачать, смотреть онлайн Джон Уик бесплантно в хорошем качестве Описание: Джон Уик на первый взгляд самый обычный среднестатистический американец, который ведет спокойную мирную жизнь. Однако мало кто ... 10 10 8
Торрент: Зарегистрирован [2017-11-03 22:30] · скачан: 119 раз
Статус: √ проверено
Размер: 61.57 GB
Как cкачать? Как скачать Джон Уик через торрент | UTorrent

% Раздел Тема Автор DL S | L
Ultra HD (UHD: 2K, 4K, 8K) [ 31.68 GB ] Джон Уик / John Wick | iTunes | 2160p bober100 Скачать
1 | 0
Фильмы (HD 720p, 1080p) (48-60 fps) [ 4.01 GB ] Джон Уик / John Wick | DUB | 720p 60 fps от еnvy / NNNB еnvy Скачать
28 | 1
Фильмы 2014 [DVDrip, WEB-DLRip, HDrip] [ 2.18 GB ] Джон Уик / John Wick | DUB | BDRip bober100 Скачать
1 | 0
Фильмы с авторской озвучкой [ 1.37 GB ] Джон Уик / John Wick | | DLRip, Авторский (одноголосый Ворон Скачать
1 | 0
Фильмы (WEB-DL 720p, 1080p) [ 3.4 GB ] Джон Уик / John Wick | | 720p, DVO [Студия "Paradox" Ворон Скачать
2 | 0
Фильмы 2014 [DVDrip, WEB-DLRip, HDrip] [ 1.42 GB ] Джон Уик / John Wick | | DLRip-AVC, White Smoke Скачать
1 | 0
T Фильмы [HD 720p, 1080p] (Хороший звук DUB, MVO) [ 6.91 GB ] Джон Уик / John Wick | DUB 2xAVO | 720p _denis_100 Скачать
1 | 0

28-11-2019 20:33  


Отключить вcю реклaмy на сайте, в т.ч. и в плеере онлайн просмотра!

    Дорогой пользователь! Огромная просьба, поблагодарите релизера, оцените раздачу и оставьте свои комментарий, если Вы скачали Джон Уик через торрент бесплатно!!
    Комментировать посты могут только пользователи прошедшие не сложную регистрацию
    Показать сообщения:    


    Джон Уик через торрент
    Скачать бесплатно Джон Уик
    Джон Уик скачать торрент
    Джон Уик смотреть онлайн
    Cкачать фильм Джон Уик бесплатно
    Джон Уик скачать торрент в хорошем качестве
    Джон Уик смотреть онлайн бесплатно в хорошем качестве
    Вы не можете начинать темы
    Вы не можете отвечать на сообщения
    Вы не можете редактировать свои сообщения
    Вы не можете удалять свои сообщения
    Вы не можете голосовать в опросах
    Вы не можете прикреплять файлы к сообщениям
    Вы можете скачивать файлы
    Джон Уик / John Wick [2014, Боевик, триллер, UHD BDRemux 2160p] Дубляж+5xAVO [Лицензия] смотреть онлайн, скачать торрент picoco.icu