2 сезон

iTunes

WEBRip

1

2 сезон

iTunes

1 сезон

1 сезон

RePack

30

Новинка

ВАЖНО

ИГРА 18+

pack

RePack

MK11
pack

Легкие деньги

RePack

jed

RePack

fifa19

RePack

RDR2

RePack

NEED FOR SPEED™ PAYBACK

4 сезон

9 сезон

Бесстыжие 9 сезон

Все сериалы

все сериалы на PB.wtf

RePack

FAR CRY 5

Anonymous, доброй ночи, мы не успеваем собрать деньги на оплату серверов за февраль, помогите нам пожалуйста в это трудное время. В качестве благодарности мы отключим Вам всю рекламу на сайте (укажите свой ник в строку Ваше имя)!

×
  
Magnet ссылка

Дочь и мать её / Snatched (Джонатан Левин) [2017, боевик, комедия, BDRip 1080p] [Ukr DUB] [Лицензия / iTunes] piratbit.org

Дочь и мать её через торрент piratbit.org

Размер: 6.67 GB | Добавлен: 3 года 3 мес. назад | Торрент скачан:39 раз
Скачать  

04-11-2017 14:31 Дочь и мать её Скачать торрент  

Дочь и мать её / Snatched
Год выхода: 2017
Жанр: боевик, комедия
Страна: США
Студия: 20th Century Fox Film Corporation
Продолжительность: 01:30:30
Перевод: Украинский (дублированный) [Лицензия / iTunes]
Субтитры: Украинские, английские

Режиссер: Джонатан Левин

В ролях: Эми Шумер, Ким Карамел, Рэйвен Гудвин, Кэти Дипполд, Рэндолл Парк, Голди Хоун, Айк Баринхолц, Luis R. Espinoza, Luis F. Ramirez, Дэниэл Бесс

О фильме:
Взбалмошной Эмили уже за 30, и её только что бросил парень. Теперь девушке нужно срочно найти попутчика для путешествия в Эквадор вместо выбывшего бойфренда. Эмили удается уговорить на совместную поездку свою сверхосторожную маму. Но вместо спокойного семейного отдыха дочь и мать её ждет похищение. И когда такие разные женщины оказываются вместе в заложниках, их родственная связь испытывает нешуточную проверку на прочность. Возможно, они станут даже ближе друг другу, но только если сумеют сбежать и выжить в джунглях.



Качество: BDRip 1080p
Формат: MKV
Видео кодек: AVC
Аудио кодек: AC3, DTS
Видео: 1920x800 (2.40:1), 23.976 fps, AVC, 8863 Kbps
Аудио #1: AC3, 192 Kbps, 48.0 KHz, 2 ch [Ukr DUB]
Аудио #2: DTS, 1 510 Kbps, 48.0 KHz, 6 ch [Eng]

Релиз --
General
Unique ID : 175149981825898394327877993403685393051 (0x83C4A8D366E64C68B8459D9C6AC9D29B)
Complete name : F:\Snatched (2017) BDRip 1080p [Ukr,Eng Sub Ukr,Eng] [Hurtom].mkv
Format : Matroska
Format version : Version 4 / Version 2
File size : 6.67 GiB
Duration : 1 h 30 min
Overall bit rate : 10.6 Mb/s
Encoded date : UTC 2017-11-04 10:43:37
Writing application : mkvmerge v15.0.0 ('Duel with the Devil') 32-bit
Writing library : libebml v1.3.5 + libmatroska v1.4.5

Video
ID : 1
Format : AVC
Format/Info : Advanced Video Codec
Format profile : High@L4.1
Format settings : CABAC / 5 Ref Frames
Format settings, CABAC : Yes
Format settings, RefFrames : 5 frames
Codec ID : V_MPEG4/ISO/AVC
Duration : 1 h 30 min
Bit rate : 8 863 kb/s
Width : 1 920 pixels
Height : 800 pixels
Display aspect ratio : 2.40:1
Frame rate mode : Constant
Frame rate : 23.976 FPS
Color space : YUV
Chroma subsampling : 4:2:0
Bit depth : 8 bits
Scan type : Progressive
Bits/(Pixel*Frame) : 0.241
Stream size : 5.47 GiB (82%)
Writing library : x264 core 150 r2833 df79067
Encoding settings : cabac=1 / ref=5 / deblock=1:0:0 / analyse=0x3:0x133 / me=umh / subme=7 / psy=1 / psy_rd=1.00:0.00 / mixed_ref=1 / me_range=16 / chroma_me=1 / trellis=1 / 8x8dct=1 / cqm=0 / deadzone=21,11 / fast_pskip=0 / chroma_qp_offset=-2 / threads=12 / lookahead_threads=2 / sliced_threads=0 / nr=0 / decimate=1 / interlaced=0 / bluray_compat=0 / constrained_intra=0 / bframes=3 / b_pyramid=2 / b_adapt=1 / b_bias=0 / direct=1 / weightb=1 / open_gop=0 / weightp=2 / keyint=250 / keyint_min=23 / scenecut=40 / intra_refresh=0 / rc_lookahead=40 / rc=2pass / mbtree=1 / bitrate=8863 / ratetol=1.0 / qcomp=0.60 / qpmin=0 / qpmax=69 / qpstep=4 / cplxblur=20.0 / qblur=0.5 / ip_ratio=1.40 / aq=1:1.00
Language : English
Default : Yes
Forced : No

Audio #1
ID : 2
Format : AC-3
Format/Info : Audio Coding 3
Format settings, Endianness : Big
Codec ID : A_AC3
Duration : 1 h 30 min
Bit rate mode : Constant
Bit rate : 192 kb/s
Channel(s) : 2 channels
Channel positions : Front: L R
Sampling rate : 48.0 kHz
Frame rate : 31.250 FPS (1536 SPF)
Bit depth : 16 bits
Compression mode : Lossy
Stream size : 124 MiB (2%)
Language : Ukrainian
Service kind : Complete Main
Default : Yes
Forced : No

Audio #2
ID : 3
Format : DTS
Format/Info : Digital Theater Systems
Format profile : ES Matrix / Core
Mode : 16
Format settings, Endianness : Big
Codec ID : A_DTS
Duration : 1 h 30 min
Bit rate mode : Constant
Bit rate : 1 509 kb/s
Channel(s) : 7 channels / 6 channels
Channel positions : Front: L C R, Side: L R, Back: C, LFE / Front: L C R, Side: L R, LFE
Sampling rate : 48.0 kHz
Frame rate : 93.750 FPS (512 SPF)
Bit depth : 24 bits
Compression mode : Lossy
Stream size : 977 MiB (14%)
Language : English
Default : No
Forced : No

Text #1
ID : 4
Format : UTF-8
Codec ID : S_TEXT/UTF8
Codec ID/Info : UTF-8 Plain Text
Language : Ukrainian
Default : Yes
Forced : No

Text #2
ID : 5
Format : UTF-8
Codec ID : S_TEXT/UTF8
Codec ID/Info : UTF-8 Plain Text
Language : English
Default : No
Forced : No

Menu
00:00:00.000 : en:00:00:00.000
00:03:27.833 : en:00:03:27.833
00:05:44.219 : en:00:05:44.219
00:08:34.097 : en:00:08:34.097
00:12:26.120 : en:00:12:26.120
00:16:27.403 : en:00:16:27.403
00:21:22.281 : en:00:21:22.281
00:25:15.597 : en:00:25:15.597
00:29:30.811 : en:00:29:30.811
00:33:22.334 : en:00:33:22.334
00:38:31.142 : en:00:38:31.142
00:42:01.185 : en:00:42:01.185
00:46:11.978 : en:00:46:11.978
00:49:14.201 : en:00:49:14.201
00:53:37.798 : en:00:53:37.798
00:56:13.036 : en:00:56:13.036
00:58:52.904 : en:00:58:52.904
01:00:59.698 : en:01:00:59.698
01:03:53.997 : en:01:03:53.997
01:06:53.343 : en:01:06:53.343
01:14:02.104 : en:01:14:02.104
01:17:14.839 : en:01:17:14.839
01:19:43.612 : en:01:19:43.612
01:22:43.834 : en:01:22:43.834
piratbit.org



Скачать Дочь и мать её через торрент http://i97.fastpic.ru/big/2017/1104/38/6fc6d1d38154f762fe7ed107ef419138.jpg Скачать фильм Дочь и мать её через торрент бесплантно в хорошем качестве О фильме: Взбалмошной Эмили уже за 30, и её только что бросил парень. Теперь девушке нужно срочно найти попутчика для путешествия в Эквадор ... 7.8 10 4
Торрент: Зарегистрирован [2017-11-04 14:31] · скачан: 39 раз
Статус: T временная
Размер: 6.67 GB
Как cкачать? Как скачать Дочь и мать её через торрент | UTorrent

% Раздел Тема Автор DL S | L
Фильмы 2017 [DVDrip, WEB-DLRip, HDrip] (DUB, MVO) [ 1.46 GB ] Дочь и мать её / Snatched [2017 BDRip] MVO [] Twi7ter Скачать
1 | 0
Фильмы (Blu-ray, BD-Remux, HDDVD) [ 22.02 GB ] Дочь и мать её / Snatched [2017 BD Remux 1080p] MVO [ Blu-ray EUR] bober100 Скачать
1 | 0
Фильмы 2017 [DVDrip, WEB-DLRip, HDrip] (DUB, MVO) [ 1.85 GB ] Дочь и мать её / Snatched [2017 BDRip-AVC] MVO [] bober100 Скачать
1 | 0

28-11-2019 20:33  

Отключить всю рекламу на сайте

    Дорогой пользователь! Огромная просьба, поблагодарите релизера, оцените раздачу и оставьте свои комментарий, если Вы скачали Дочь и мать её через торрент бесплатно! Внесите свою лепту в развитие PiratBit!
    Комментировать посты могут только пользователи прошедшие не сложную регистрацию
    Показать сообщения:    

    Дочь и мать её через торрент
    Скачать бесплатно Дочь и мать её
    Дочь и мать её скачать торрент
    Дочь и мать её смотреть онлайн
    Cкачать фильм Дочь и мать её бесплатно
    Дочь и мать её скачать торрент в хорошем качестве
    Дочь и мать её смотреть онлайн бесплатно в хорошем качестве


    Вы не можете начинать темы
    Вы не можете отвечать на сообщения
    Вы не можете редактировать свои сообщения
    Вы не можете удалять свои сообщения
    Вы не можете голосовать в опросах
    Вы не можете прикреплять файлы к сообщениям
    Вы можете скачивать файлы