Лицензия

MVO

1

1 сезон

Лицензия

Лицензия

13

MVO

1 сезон

Deluxe Edition

pack

Рекомендуем

30

Repack

ВАЖНО

ВАЖНО

Ghostwire

RePack

jed

RePack

fifa19

RePack

RDR2

RePack

NEED FOR SPEED™ PAYBACK

RePack

Кинопоиск HD

 Острые козырьки 6 сезон

6 сезон

FAR CRY 6

RePack

Лицензия

MVO

1

1 сезон

1 сезон

Лицензия

  

Василий Суриков (Анатолий Рыбаков) [1959, СССР, драма, биография, SATRip от AVP Studio]

Василий Суриков через торрент piratbit.org

Размер: 1.09 GB | Добавлен: 4 года 10 мес. назад | Торрент скачан:17 раз
Смотреть онлайн Василий Суриков | Скачать   

06-11-2017 09:49 Василий Суриков Скачать торрент  

Василий Суриков
Страна: СССР
Производство: Мосфильм

Жанр: драма, биография
Год выпуска: 1959
Продолжительность: 01:28:16

Перевод: Не требуется
Cубтитры: нет
Оригинальная аудиодорожка: русский

Режиссер: Анатолий Рыбаков

В ролях:
Евгений Лазарев, Лариса Кадочникова, Леонид Галлис, Геннадий Юдин, Георгий Вицин, Иван Кудрявцев, Анатолий Федоринов, Владимир Марута, Владимир Белокуров, Георгий Черноволенко, Николай Сергеев, Анатолий Кубацкий, Николай Горлов, Владимир Пицек...
Об актёрах подробней

Описание:
Фильм рассказывает о двух десятилетиях жизни знаменитого русского живописца Василия Ивановича Сурикова (1848-1916).
В конце 1860-х годов благодаря финансовой поддержке красноярского мецената золотопромышленника Кузнецова, талантливый юноша Василий Суриков (Евгений Лазарев) едет в Петербург и после трёхмесячной подготовки сдаёт экзамены для поступления в Академию художеств...

Источник: DVB
Качество видео: SATRip
Формат видео: AVI

Видео: 672x496 (4:3), 25 fps, XviD ~ 1566 kbps avg, 0.188 bit/pixel
Аудио: 48 kHz, Dolby Digital AC3 2.0, 192 kbps

Раздача от:
Общее
Полное имя : Vasiliy.Surikov.1959.SATRip_[New-team]_by_AVP_Studio.avi
Формат : AVI
Формат/Информация : Audio Video Interleave
Размер файла : 1,09 Гбайт
Продолжительность : 1 ч. 28 м.
Общий поток : 1767 Кбит/сек
Программа кодирования : VirtualDubMod 1.5.10.3 | www.virtualdub-fr.org || (build 2550/release)
Библиотека кодирования : VirtualDubMod build 2550/release

Видео
Идентификатор : 0
Формат : MPEG-4 Visual
Профиль формата : Advanced Simple@L5
Параметр BVOP формата : 1
Параметр QPel формата : Нет
Параметр GMC формата : Без точки перехода
Параметр матрицы формата : Выборочная
Идентификатор кодека : XVID
Идентификатор кодека/Подсказка : XviD
Продолжительность : 1 ч. 28 м.
Битрейт : 1566 Кбит/сек
Ширина : 672 пикселя
Высота : 496 пикселей
Соотношение сторон : 4:3
Частота кадров : 25,000 кадров/сек
Цветовое пространство : YUV
Субдискретизация насыщенности : 4:2:0
Битовая глубина : 8 бит
Тип развёртки : Прогрессивная
Метод сжатия : С потерями
Бит/(Пиксели*Кадры) : 0.188
Размер потока : 988 Мбайт (89%)
Библиотека кодирования : XviD 73

Аудио
Идентификатор : 1
Формат : AC-3
Формат/Информация : Audio Coding 3
Параметр Endianness формата : Big
Идентификатор кодека : 2000
Продолжительность : 1 ч. 28 м.
Вид битрейта : Постоянный
Битрейт : 192 Кбит/сек
Каналы : 2 канала
Расположение каналов : Front: L R
Частота : 48,0 КГц
Частота кадров : 31,250 кадров/сек (1536 SPF)
Битовая глубина : 16 бит
Метод сжатия : С потерями
Размер потока : 121 Мбайт (11%)
Выравнивание : Разделение по промежуткам
Продолжительность промежутка : 40 мс. (1,00 видеокадр)
Время предзагрузки промежутка : 500 мс



Скачать Василий Суриков через торрент http://s019.radikal.ru/i636/1711/f8/2e7850e97b13.png Скачать, смотреть онлайн Василий Суриков бесплантно в хорошем качестве Описание:Фильм рассказывает о двух десятилетиях жизни знаменитого русского живописца Василия Ивановича Сурикова (1848-1916).В конце 1860-х ... 5 10 1
Info! Золотая раздача, скачанное не засчитывается.
Торрент: Зарегистрирован [2017-11-06 09:49] · скачан: 17 раз
Статус: √ проверено
Размер: 1.09 GB
Как cкачать? Как скачать Василий Суриков через торрент | UTorrent

% Раздел Тема Автор DL S | L
Кино СССР [ 1.09 GB ] Василий Суриков | | SATRip-AVC от AVP Studio AVP Studio Скачать
1 | 0
Кино СССР [ 745 MB ] Василий Суриков | | SATRip от AVP Studio AVP Studio Скачать
1 | 0

28-11-2019 20:33  

Отключить вcю реклaмy на сайте

    Дорогой пользователь! Огромная просьба, поблагодарите релизера, оцените раздачу и оставьте свои комментарий, если Вы скачали Василий Суриков через торрент бесплатно!!
    Комментировать посты могут только пользователи прошедшие не сложную регистрацию
    Показать сообщения:    


    Василий Суриков через торрент
    Скачать бесплатно Василий Суриков
    Василий Суриков скачать торрент
    Василий Суриков смотреть онлайн
    Cкачать фильм Василий Суриков бесплатно
    Василий Суриков скачать торрент в хорошем качестве
    Василий Суриков смотреть онлайн бесплатно в хорошем качестве
    Вы не можете начинать темы
    Вы не можете отвечать на сообщения
    Вы не можете редактировать свои сообщения
    Вы не можете удалять свои сообщения
    Вы не можете голосовать в опросах
    Вы не можете прикреплять файлы к сообщениям
    Вы можете скачивать файлы