1 сезон

3 сезон

iTunes

1

iTunes

DUB Netflix

iTunes

13

1 сезон

RePack

30

Deluxe

pack

Легкие деньги

ВАЖНО

ИГРА 18+

pack

RePack

MK11

RePack

jed

RePack

fifa19

RePack

RDR2

RePack

NEED FOR SPEED™ PAYBACK

4 сезон

9 сезон

Бесстыжие 9 сезон

Все сериалы

все сериалы на PB.wtf

RePack

FAR CRY 5

Anonymous, добрый вечер, мы не успеваем до 1 числа собрать деньги на оплату серверов, помогите нам пожалуйста в это трудное время. В качестве благодарности мы отключим Вам всю рекламу на сайте (укажите свой ник в строку Ваше имя)!

×
  
Magnet ссылка

Универ. Новая общага / Сезон: 13 / Серии 1-20 из 20 (Константин Смирнов) [2017, Ситком, комедия, SATRip] piratbit.org

Универ. Новая общага через торрент piratbit.org

Размер: 5.88 GB | Добавлен: 3 года 6 мес. назад | Торрент скачан:313 раз
Скачать  

07-11-2017 11:25 Универ. Новая общага Скачать торрент  

Универ. Новая общагаГод выпуска: 2017
Страна: Россия
Жанр: Ситком, комедия
Продолжительность: 20 x ~ 00:25:00
Субтитры: отсутствуют

Режиссер: Константин Смирнов



В ролях:

Арарат Кещян, Станислав Ярушин, Анна Кузина, Настасья Самбурская, Анна Хилькевич, Владимир Фекленко, Елена Валюшкина, Андрей Лебедев, Сергей Пиоро, Роман Куперман, Дмитрий Калистратов, Алексей Шаранин, Дарья Щёголева, Наталья Рудова, Иван Руденко, Анатолий Носов, Дмитрий Кузин, Мария Беляева, Александра Булычева, Галина Глушкова, Александр Стекольников

Описание:

Вот и настал тот момент, которого мы все ждали. Это премьера сериала "Универ новый сосед". К нашим любимым героям подселят нового соседа, так как всем известно, что Кузя ушел с проекта Универ. Этот герой обещает быть таким же смешным как и сам кузя, так как из анонсов видно, что этот новый герой не блещет интеллектом как это было и с Кузей.

Качество: SATRip
Формат: AVI
Видео кодек: XviD
Аудио кодек: AC3

Видео: ~ 1650 Кбит/с, 720x400
Аудио: AC3, 2 ch, 192 Кбит/с
скриншот   скриншот   скриншот  

Общее
Полное имя : D:\Univer.13.2017..SATRip.Files-x\01.Univer.13.2017..SATRip.Files-x.avi
Формат : AVI
Формат/Информация : Audio Video Interleave
Размер файла : 303 Мбайт
Продолжительность : 24 м. 13 с.
Общий поток : 1747 Кбит/сек
Программа кодирования : VirtualDubMod 1.5.10.2 (build 2542/release)
Библиотека кодирования : VirtualDubMod build 2542/release

Видео
Идентификатор : 0
Формат : MPEG-4 Visual
Профиль формата : Advanced Simple@L5
Параметр BVOP формата : 1
Параметр QPel формата : Нет
Параметр GMC формата : Без точки перехода
Параметр матрицы формата : Выборочная
Идентификатор кодека : XVID
Идентификатор кодека/Подсказка : XviD
Продолжительность : 24 м. 13 с.
Битрейт : 1545 Кбит/сек
Ширина : 720 пикселей
Высота : 400 пикселей
Соотношение сторон : 16:9
Частота кадров : 25,000 кадров/сек
Цветовое пространство : YUV
Субдискретизация насыщенности : 4:2:0
Битовая глубина : 8 бит
Тип развёртки : Прогрессивная
Метод сжатия : С потерями
Бит/(Пиксели*Кадры) : 0.215
Размер потока : 268 Мбайт (88%)
Библиотека кодирования : XviD 73

Аудио
Идентификатор : 1
Формат : AC-3
Формат/Информация : Audio Coding 3
Расширение режима : CM (complete main)
Параметр Endianness формата : Big
Идентификатор кодека : 2000
Продолжительность : 24 м. 13 с.
Вид битрейта : Постоянный
Битрейт : 192 Кбит/сек
Каналы : 2 канала
Расположение каналов : Front: L R
Частота : 48,0 КГц
Частота кадров : 31,250 кадров/сек (1536 spf)
Метод сжатия : С потерями
Размер потока : 33,3 Мбайт (11%)
Выравнивание : Разделение по промежуткам
Продолжительность промежутка : 40 мс. (1,00 видеокадр)
Время предзагрузки промежутка : 500 мс.

нимание! Раздача ведётся путём добавления новых серий; при каждом добавлении создаётся новый торрент. Чтобы начать докачку новой серии, пользователям необходимо сделать следующее:
(1) остановить скачивание,
(2) удалить старый торрент у себя из клиента (старые серии удалять не надо),
(3) скачать новый торрент и запустить его у себя в клиенте вместо старого, при этом указать клиенту путь в старую папку куда и должно происходить скачивание новых серий.
Ваш клиент при этом должен произвести хеширование (проверку) старой папки (если не производит сам - помогите ему сделать это), и будет докачивать только те серии которых у вас ещё нет. Старые серии при этом не удаляются, а продолжают раздаваться!
Eсли вы уже удалили старые серии, то предотвратить повторную закачку старых серий можно, отжав галочку в соответствующих местах при запуске нового торрента. По возможности, желательно не удалять старые серии как можно дольше чтобы релизёр не столько продолжал раздавать старые серии, а смог сконцентрироваться на новых.
piratbit.org



Скачать Универ. Новая общага через торрент http://i069.radikal.ru/1711/dd/3608fe33297b.jpg Скачать фильм Универ. Новая общага через торрент бесплантно в хорошем качестве Описание: Вот и настал тот момент, которого мы все ждали. Это премьера сериала "Универ новый сосед". К нашим любимым героям подселят нового ... 9.4 10 20
Торрент: Зарегистрирован [2017-12-07 18:56] · скачан: 313 раз
Статус: √ проверено
Размер: 5.88 GB
Как cкачать? Как скачать Универ. Новая общага через торрент | UTorrent

% Раздел Тема Автор DL S | L
TNT serials [ 6.07 GB ] Универ. Новая общага / 7 сезон / 1-11 серия из 20 [2014 Россия WEB-DL 720p) GEKADOL Скачать
1 | 0
TNT serials [ 12.87 GB ] Универ. Новая общага / Сезон: 13 / Серии 1-20 из 20 [2017 Россия WEB-DL 720p] GEKADOL Скачать
1 | 0
TNT serials [ 21.68 GB ] Универ. Новая общага / Сезон: 13 / Серии 1-20 из 20 [2017 Ситком HDTV 1080i] bober100 Скачать
1 | 0
TNT serials [ 7.16 GB ] Универ. Новая общага / Сезон: 4 / Серии: 1-24 из 24 [2013 Ситком SATRip] Оригинал wekotila Скачать
1 | 0
TNT serials [ 11.52 GB ] Универ. Новая общага . Новый сосед / Сезон: 5 / Серии: 1-11 13-23 из 23 [2013 ситком WEB-DL 720p] 7Sense Скачать
1 | 0


Последний раз редактировалось: bober100 (2017-12-07 18:56), всего редактировалось 13 раз(а)

28-11-2019 20:33  

Отключить всю рекламу на сайте

22-11-2017 13:01 Универ. Новая общага Скачать торрент  

а когда новые серии появятся?????????piratbit.org



28-11-2017 13:56 Универ. Новая общага Скачать торрент  

Здулся сериальчик....piratbit.org



    Дорогой пользователь! Огромная просьба, поблагодарите релизера, оцените раздачу и оставьте свои комментарий, если Вы скачали Универ. Новая общага через торрент бесплатно! Внесите свою лепту в развитие PiratBit!
    Комментировать посты могут только пользователи прошедшие не сложную регистрацию
    Показать сообщения:    

    Универ. Новая общага через торрент
    Скачать бесплатно Универ. Новая общага
    Универ. Новая общага скачать торрент
    Универ. Новая общага смотреть онлайн
    Cкачать фильм Универ. Новая общага бесплатно
    Универ. Новая общага скачать торрент в хорошем качестве
    Универ. Новая общага смотреть онлайн бесплатно в хорошем качестве


    Вы не можете начинать темы
    Вы не можете отвечать на сообщения
    Вы не можете редактировать свои сообщения
    Вы не можете удалять свои сообщения
    Вы не можете голосовать в опросах
    Вы не можете прикреплять файлы к сообщениям
    Вы можете скачивать файлы