1 сезон

3 сезон

iTunes

1

iTunes

MVO

iTunes

13

1 сезон

RePack

30

Deluxe

pack

Лицензия

ВАЖНО

ИГРА 18+

pack

RePack

MK11

RePack

jed

RePack

fifa19

RePack

RDR2

RePack

NEED FOR SPEED™ PAYBACK

4 сезон

9 сезон

Бесстыжие 9 сезон

Все сериалы

все сериалы на PB.wtf

RePack

FAR CRY 5

Anonymous, доброй ночи, мы катастрофически не успеваем собрать деньги на оплату серверов, помогите нам пожалуйста 5,10,15р., для нас важна любая помощь . В качестве благодарности мы отключим Вам всю рекламу на сайте (укажите свой ник в строку Ваше имя)!

×
  
Magnet ссылка

Блэйд 2 / Blade II (Гильермо дель Торо) [2002 г., Ужасы, Боевик, Триллер, Фэнтези, HDRip-AVC, Дубляж] piratbit.org

Блэйд 2 через торрент piratbit.org

Размер: 2.16 GB | Добавлен: 3 года 7 мес. назад | Торрент скачан:26 раз
Скачать  

14-11-2017 16:57 Блэйд 2 Скачать торрент  

Блэйд 2 / Blade IIГод выпуска: 2002
Страна: США
Жанр: Ужасы, Боевик, Триллер, Фэнтези
Продолжительность: 01:56:53
Перевод: Дубляж
Субтитры: отсутствуют

Режиссер: Гильермо дель Торо

Премьера в мире: 21 марта 2002

rating

В ролях: Уэсли Снайпс, Крис Кристофферсон, Рон Перлман, Леонор Варела, Норман Ридус, Томас Кречман, Люк Госс, Мэтт Шульце, Дэнни Джон-Джулс, Донни Ен

Описание: Мир вампиров в ужасе от появления новой расы супер-кровососов! Именно благодаря этому легендарный Блэйд и его учитель Уистлер вынуждены объединиться со своими кровными врагами Кровавой Стаей, — элитным отрядом вампиров-воинов.

Качество: HDRip-AVC
Формат: MKV
Видео кодек: H.264
Аудио кодек: AC3
Видео: AVC/H.264, 1024х576 (16:9), ~2201 kbps, 0.156 bit/pixel
Аудио#1: Русский: AC3, 6 ch, 448 kbps - Дубляж
Релиз от: winchester00100010
Общее
Уникальный идентификатор : 212625046803912018530483294437639559865 (0x9FF6182E4F701F6B998B83EFF9B59AB9)
Полное имя : D:\Торрент файлы раздач вместе с фильмами\Blade.II.2002.HDRip-AVC.mkv
Формат : Matroska
Версия формата : Version 2
Размер файла : 2,16 Гбайт
Продолжительность : 1 ч. 56 м.
Общий поток : 2649 Кбит/сек
Дата кодирования : UTC 2017-09-25 05:26:40
Программа кодирования : mkvmerge v7.8.0 ('River Man') 32bit built on Apr 3 2015 12:11:22
Библиотека кодирования : libebml v1.3.1 + libmatroska v1.4.2

Видео
Идентификатор : 1
Формат : AVC
Формат/Информация : Advanced Video Codec
Профиль формата : High@L4.1
Настройки формата : CABAC / 12 Ref Frames
Параметр CABAC формата : Да
Параметр RefFrames формата : 12 кадров
Идентификатор кодека : V_MPEG4/ISO/AVC
Продолжительность : 1 ч. 56 м.
Битрейт : 2201 Кбит/сек
Ширина : 1024 пикселя
Высота : 576 пикселей
Соотношение сторон : 16:9
Режим частоты кадров : Постоянный
Частота кадров : 23,976 (24000/1001) кадра/сек
Цветовое пространство : YUV
Субдискретизация насыщенности : 4:2:0
Битовая глубина : 8 бит
Тип развёртки : Прогрессивная
Бит/(Пиксели*Кадры) : 0.156
Размер потока : 1,75 Гбайт (81%)
Библиотека кодирования : x264 core 146 r2538 121396c
Настройки программы : cabac=1 / ref=12 / deblock=1:-3:-3 / analyse=0x3:0x113 / me=umh / subme=11 / psy=1 / psy_rd=1.00:0.00 / mixed_ref=1 / me_range=32 / chroma_me=1 / trellis=2 / 8x8dct=1 / cqm=0 / deadzone=21,11 / fast_pskip=0 / chroma_qp_offset=-2 / threads=12 / lookahead_threads=2 / sliced_threads=0 / nr=0 / decimate=0 / interlaced=0 / bluray_compat=0 / constrained_intra=0 / bframes=10 / b_pyramid=2 / b_adapt=2 / b_bias=0 / direct=3 / weightb=1 / open_gop=0 / weightp=2 / keyint=240 / keyint_min=23 / scenecut=40 / intra_refresh=0 / rc_lookahead=40 / rc=2pass / mbtree=0 / bitrate=2201 / ratetol=1.0 / qcomp=0.60 / qpmin=0 / qpmax=69 / qpstep=4 / cplxblur=20.0 / qblur=0.5 / vbv_maxrate=14000 / vbv_bufsize=14000 / nal_hrd=none / filler=0 / ip_ratio=1.40 / pb_ratio=1.30 / aq=1:1.00
Default : Да
Forced : Нет

Аудио
Идентификатор : 2
Формат : AC-3
Формат/Информация : Audio Coding 3
Идентификатор кодека : A_AC3
Продолжительность : 1 ч. 56 м.
Вид битрейта : Постоянный
Битрейт : 448 Кбит/сек
Каналы : 6 каналов
Расположение каналов : Front: L C R, Side: L R, LFE
Частота : 48,0 КГц
Частота кадров : 31,250 кадров/сек (1536 SPF)
Битовая глубина : 16 бит
Метод сжатия : С потерями
Размер потока : 375 Мбайт (17%)
ServiceKind/String : Complete Main
Default : Да
Forced : Нет

piratbit.org



Скачать Блэйд 2 через торрент https://pic1.kartinco.top/images/11/4xaxi.jpg Скачать фильм Блэйд 2 через торрент бесплантно в хорошем качестве Описание: Мир вампиров в ужасе от появления новой расы супер-кровососов! Именно благодаря этому легендарный Блэйд и его учитель Уистлер ... 10 10 4
Торрент: Зарегистрирован [2017-12-11 16:25] · скачан: 26 раз
Статус: √ проверено
Размер: 2.16 GB
Как cкачать? Как скачать Блэйд 2 через торрент | UTorrent

% Раздел Тема Автор DL S | L
Ultra HD (UHD: 2K, 4K, 8K) — видео сверхвысокой чёткости [ 58.44 GB ] Блэйд 2 / Blade II [2002 UHD BDRemux 2160p] DUB + AVO [Д. Пучков] sheker187 Скачать
1 | 0
Фильмы [HD 720p, 1080p] (Хороший звук DUB, MVO) [ 7.76 GB ] Блэйд 2 / Blade II [2002 BDRip 1080p + Оригинал] Бумер Скачать
1 | 0
Фильмы 2001-2005 [ 2.18 GB ] Блэйд 2 / Blade II [2002 BDRip] Andruuha Скачать
1 | 0

28-11-2019 20:33  

Отключить всю рекламу на сайте

11-12-2017 16:25 Блэйд 2 Скачать торрент  

Перезалил торрент файлик, так как человек писал вконтакте мне, что
он не может скачать и не качается раздача, перекачайте торрентpiratbit.org



    Дорогой пользователь! Огромная просьба, поблагодарите релизера, оцените раздачу и оставьте свои комментарий, если Вы скачали Блэйд 2 через торрент бесплатно! Внесите свою лепту в развитие PiratBit!
    Комментировать посты могут только пользователи прошедшие не сложную регистрацию
    Показать сообщения:    

    Блэйд 2 через торрент
    Скачать бесплатно Блэйд 2
    Блэйд 2 скачать торрент
    Блэйд 2 смотреть онлайн
    Cкачать фильм Блэйд 2 бесплатно
    Блэйд 2 скачать торрент в хорошем качестве
    Блэйд 2 смотреть онлайн бесплатно в хорошем качестве


    Вы не можете начинать темы
    Вы не можете отвечать на сообщения
    Вы не можете редактировать свои сообщения
    Вы не можете удалять свои сообщения
    Вы не можете голосовать в опросах
    Вы не можете прикреплять файлы к сообщениям
    Вы можете скачивать файлы