Ссылка на приватное зеркало нашего сайта всего за 1$. Внимание количество ограничено!!!

2 сезон

iTunes

iTunes

1

iTunes

iTunes

iTunes

WEBRip

iTunes

30
pack

Забери бонус

ВАЖНО

!!Акция!!

Alien_RageХит недели

RePack

RESIDENT EVIL 3: NEMESIS REMAKE

ИГРА 18+

pack

RePack

jed

!!Акция!!

Alien_Rage

RePack

fifa19

RePack

Assassins Creed: Odyssey

RePack

NEED FOR SPEED™ PAYBACK

4 сезон

9 сезон

Бесстыжие 9 сезон

Все сериалы

все сериалы на PB.wtf

RePack

FAR CRY 5
  

Марго на свадьбе / Margot at the Wedding (Ноа Баумбах) [2007 г, драма, WEB-DLRip] 2xDVO piratbit.org

Марго на свадьбе через торрент piratbit.org

Размер: 1.45 GB | Добавлен: 2 года 10 мес. назад | Торрент скачан:3 раза
Скачать  

17-11-2017 06:23 Марго на свадьбе Скачать торрент  

Марго на свадьбе / Margot at the Wedding
Год выпуска: 2007
Страна: США
Жанр: драма
Продолжительность: 01:32:35
Перевод: Профессиональный (двухголосый)

Режиссер: Ноа Баумбах

rating

В ролях: Николь Кидман, Дженнифер Джейсон Ли, Джек Блэк, Зейн Пэйс, Сьюзэн Блэкуелл, Флора Кросс, Сет Барриш, Мэттью Аркин, Майкл Каллен, Энид Грэхэм

Описание: Марго решает навестить свою сестру Полин после получения известия о предстоящем замужестве родственницы — удивительно, но ее выбор пал на ничем не примечательного Малькольма. Вместе с Марго в поездку отправляется и ее сын Клод.

Качество: WEB-DLRip
Формат: AVI
Видео: XviD, 1588 кбит/с, 720x400, 23.976 кадр/с
Аудио#1: AC3, 6 ch, 448 Кбит/с | Профессиональный двухголосый (НТВ+)
Аудио#2: AC3, 2 ch, 192 Кбит/с | Профессиональный двухголосый (Paramount Channel)
Релиз от: Koenig
скриншот   скриншот   скриншот   скриншот   скриншот   скриншот  

Общее
Полное имя : Margot.at.the.Wedding.2007.1080p.WEB-DLRip.avi
Формат : AVI
Формат/Информация : Audio Video Interleave
Размер файла : 1,45 Гбайт
Продолжительность : 1 ч. 32 м.
Общий поток : 2242 Кбит/сек
Программа кодирования : VirtualDubMod 1.5.10.2 (build 2540/release)
Библиотека кодирования : VirtualDubMod build 2540/release

Видео
Идентификатор : 0
Формат : MPEG-4 Visual
Профиль формата : Advanced Simple@L5
Параметр BVOP формата : 1
Параметр QPel формата : Нет
Параметр GMC формата : Без точки перехода
Параметр матрицы формата : Выборочная
Идентификатор кодека : XVID
Идентификатор кодека/Подсказка : XviD
Продолжительность : 1 ч. 32 м.
Битрейт : 1588 Кбит/сек
Ширина : 720 пикселей
Высота : 400 пикселей
Соотношение сторон : 16:9
Частота кадров : 23,976 (24000/1001) кадра/сек
Цветовое пространство : YUV
Субдискретизация насыщенности : 4:2:0
Битовая глубина : 8 бит
Тип развёртки : Прогрессивная
Метод сжатия : С потерями
Бит/(Пиксели*Кадры) : 0.230
Размер потока : 1,03 Гбайт (71%)
Библиотека кодирования : XviD 65

Аудио #1
Идентификатор : 1
Формат : AC-3
Формат/Информация : Audio Coding 3
Параметр Endianness формата : Big
Идентификатор кодека : 2000
Продолжительность : 1 ч. 32 м.
Вид битрейта : Постоянный
Битрейт : 448 Кбит/сек
Каналы : 6 каналов
Расположение каналов : Front: L C R, Side: L R, LFE
Частота : 48,0 КГц
Частота кадров : 31,250 кадров/сек (1536 spf)
Битовая глубина : 16 бит
Метод сжатия : С потерями
Размер потока : 297 Мбайт (20%)
Выравнивание : Разделение по промежуткам
Продолжительность промежутка : 42 мс. (1,00 видеокадр)
Время предзагрузки промежутка : 500 мс.
ServiceKind/String : Complete Main

Аудио #2
Идентификатор : 2
Формат : AC-3
Формат/Информация : Audio Coding 3
Параметр Endianness формата : Big
Идентификатор кодека : 2000
Продолжительность : 1 ч. 32 м.
Вид битрейта : Постоянный
Битрейт : 192 Кбит/сек
Каналы : 2 канала
Расположение каналов : Front: L R
Частота : 48,0 КГц
Частота кадров : 31,250 кадров/сек (1536 spf)
Битовая глубина : 16 бит
Метод сжатия : С потерями
Размер потока : 127 Мбайт (9%)
Выравнивание : Разделение по промежуткам
Продолжительность промежутка : 42 мс. (1,00 видеокадр)
Время предзагрузки промежутка : 500 мс.
ServiceKind/String : Complete Main

piratbit.org



Скачать Марго на свадьбе через торрент http://pic1.kartinco.top/images/11/ziav2.jpg Скачать фильм Марго на свадьбе через торрент бесплантно в хорошем качестве Описание: Марго решает навестить свою сестру Полин после получения известия о предстоящем замужестве родственницы — удивительно, но ее ... 7 10 3
Торрент: Зарегистрирован [2017-11-17 06:37] · скачан: 3 раз
Статус: √ проверено
Размер: 1.45 GB
Как cкачать? Как скачать Марго на свадьбе через торрент | qTorrent

28-11-2019 20:33  

Отключить всю рекламу на сайте

    Дорогой пользователь! Огромная просьба, поблагодарите релизера, оцените раздачу и оставьте свои комментарий, если Вы скачали Марго на свадьбе через торрент бесплатно! Внесите свою лепту в развитие PiratBit!
    Комментировать посты могут только пользователи прошедшие не сложную регистрацию
    Показать сообщения:    

    Марго на свадьбе через торрент
    Скачать бесплатно Марго на свадьбе
    Марго на свадьбе скачать торрент
    Марго на свадьбе смотреть онлайн
    Cкачать фильм Марго на свадьбе бесплатно
    Марго на свадьбе скачать торрент в хорошем качестве
    Марго на свадьбе смотреть онлайн бесплатно в хорошем качестве


    Вы не можете начинать темы
    Вы не можете отвечать на сообщения
    Вы не можете редактировать свои сообщения
    Вы не можете удалять свои сообщения
    Вы не можете голосовать в опросах
    Вы не можете прикреплять файлы к сообщениям
    Вы можете скачивать файлы