1 сезон

3 сезон

iTunes

1

iTunes

DUB Netflix

iTunes

13

1 сезон

RePack

30

Deluxe

pack

Легкие деньги

ВАЖНО

ИГРА 18+

pack

RePack

MK11

RePack

jed

RePack

fifa19

RePack

RDR2

RePack

NEED FOR SPEED™ PAYBACK

4 сезон

9 сезон

Бесстыжие 9 сезон

Все сериалы

все сериалы на PB.wtf

RePack

FAR CRY 5

Anonymous, доброй ночи, мы не успеваем до 1 числа собрать деньги на оплату серверов, помогите нам пожалуйста в это трудное время. В качестве благодарности мы отключим Вам всю рекламу на сайте (укажите свой ник в строку Ваше имя)!

×
  
Magnet ссылка

Физрук / Сезон 4 / Серии 1-16 из 16 (Игорь Волошин) [2017, Комедия, WEB-DLRip] piratbit.org

Физрук через торрент piratbit.org

Размер: 4.68 GB | Добавлен: 3 года 7 мес. назад | Торрент скачан:391 раз
Скачать  

09-10-2017 20:03 Физрук Скачать торрент  

ФизрукГод выпуска: 2017
Страна: Россия
Производство: Кинокомпания «Good Story Media»
Жанр: Комедия
Продолжительность: ~ 00:24:00
Перевод: Не требуется
Субтитры: Нет

Режиссер: Игорь Волошин

rating

В ролях:

Дмитрий Нагиев, Александр Гордон (II), Полина Гренц, Анастасия Панина, Владимир Сычёв, Даниил Вахрушев, Андрей Крыжний, Артур Сопельник, Оксана Сидоренко, Карина Мишулина, Роман Индык, Елена Муравьёва, Евгений Кулаков, Виктория Клинкова, Екатерина Мельник, Ян Цапник, Екатерина Айсина, Наталья Коренная, Варвара Богданова, Мария Киселёва (II), Иван Мудров, Дмитрий Гогу, Владимир Жеребцов, Владимир Епископосян, Сергей Серов, Сергей Журавлёв, Любовь Германова, Борис Клюев, Дмитрий Власкин, Екатерина Шукшина

Описание:

Железногорск, классическая русская провинция, не богатая, но уютная и знакомая. Здесь и коррумпированные чиновники, и низкие зарплаты, и плохие дороги… Другими словами — привычный набор наших общероссийских проблем, одна из которых — противостояние драматического театра и местной администрации, в лице худрука Эрнеста Шиловского и зам мэра Горыжникова. Шиловский весь в долгах, а местные власти претендуют на здание театра, чтобы перестроить его под торговый центр.Фома знакомится с отцом — немного странным, совершенно непохожим на него человеком, и принимает Эрнеста Петровича со всеми его недостатками и проблемами. А раз так, то Фома остается в Железногорске, и будет спасать местный театр, а заодно наведет в городе свой порядок. Физрук теперь худрук.

Качество: WEB-DLRip
Формат: AVI
Видео кодек: XviD
Аудио кодек: AC3

Видео: ~ 1600 Кбит/с, 720x400
Аудио: AC3, 2 ch, 192 Кбит/с
скриншот   скриншот   скриншот   скриншот  

Общее
Полное имя : D:\Fizruk.4.2017.WEB-DLRip.Files-x\01.Fizruk.4.2017.WEB-DLRip.Files-x.avi
Формат : AVI
Формат/Информация : Audio Video Interleave
Размер файла : 301 Мбайт
Продолжительность : 24 м. 18 с.
Общий поток : 1731 Кбит/сек
Программа кодирования : VirtualDubMod 1.5.10.3 | www.virtualdub-fr.org || (build 2550/release)
Библиотека кодирования : VirtualDubMod build 2550/release

Видео
Идентификатор : 0
Формат : MPEG-4 Visual
Профиль формата : Advanced Simple@L5
Параметр BVOP формата : 1
Параметр QPel формата : Нет
Параметр GMC формата : Без точки перехода
Параметр матрицы формата : Выборочная
Идентификатор кодека : XVID
Идентификатор кодека/Подсказка : XviD
Продолжительность : 24 м. 18 с.
Битрейт : 1529 Кбит/сек
Ширина : 720 пикселей
Высота : 400 пикселей
Соотношение сторон : 16:9
Частота кадров : 25,000 кадров/сек
Цветовое пространство : YUV
Субдискретизация насыщенности : 4:2:0
Битовая глубина : 8 бит
Тип развёртки : Прогрессивная
Метод сжатия : С потерями
Бит/(Пиксели*Кадры) : 0.212
Размер потока : 266 Мбайт (88%)
Библиотека кодирования : XviD 73

Аудио
Идентификатор : 1
Формат : AC-3
Формат/Информация : Audio Coding 3
Расширение режима : CM (complete main)
Параметр Endianness формата : Big
Идентификатор кодека : 2000
Продолжительность : 24 м. 18 с.
Вид битрейта : Постоянный
Битрейт : 192 Кбит/сек
Каналы : 2 канала
Расположение каналов : Front: L R
Частота : 48,0 КГц
Частота кадров : 31,250 кадров/сек (1536 spf)
Метод сжатия : С потерями
Размер потока : 33,4 Мбайт (11%)
Выравнивание : Разделение по промежуткам
Продолжительность промежутка : 40 мс. (1,00 видеокадр)
Время предзагрузки промежутка : 500 мс.

Когда раздача ведётся путём добавления новых серий, при каждом добавлении создётся новый торрент. Чтобы начать докачку новой серии, пользователям необходимо сделать следующее:
(1) остановить скачивание,
(2) удалить старый торрент у себя из клиента (старые серии удалять не надо),
(3) скачать новый торрент и запустить его у себя в клиенте вместо старого, при этом указать клиенту путь в старую папку, куда и должно происходить скачивание новых серий.
Ваш клиент при этом должен произвести хеширование (проверку) старой папки (если не производит сам - помогите ему сделать это), и будет докачивать только те серии, которых у вас ещё нет. Старые серии при этом не удаляются, а продолжают раздаваться!
Eсли вы уже удалили старые серии, то предотвратить повторную закачку старых серий можно, отжав галочку в соответсвующих местах при запуске нового торрента. По возможности, желательно не удалять старые серии как можно дольше, чтобы релизёр не столько продолжал раздавать старые серии, а смог сконцентрироваться на новых.
piratbit.org



Скачать Физрук через торрент http://s010.radikal.ru/i314/1710/bf/15cb978eea12.jpg Скачать фильм Физрук через торрент бесплантно в хорошем качестве Описание: Железногорск, классическая русская провинция, не богатая, но уютная и знакомая. Здесь и коррумпированные чиновники, и низкие ... 10 10 35
Торрент: Зарегистрирован [2017-11-17 14:21] · скачан: 391 раз
Статус: √ проверено
Размер: 4.68 GB
Как cкачать? Как скачать Физрук через торрент | UTorrent

% Раздел Тема Автор DL S | L
TNT serials [ 17.98 GB ] Физрук / Сезон: 4 / Серии 1-16 из 16 [2017 HDTV 1080p] R.G.Generalfilm White Smoke Скачать
1 | 0
TNT serials [ 4.91 GB ] Физрук / Сезон: 4 / Серии 1-16 из 16 [2017 Россия HDTVRip] + [Фильм о сериале] GEKADOL Скачать
2 | 0
TNT serials [ 9.53 GB ] Физрук / Сезон 4 / Серии 1-16 из 16 [2017 WEB-DL 720p] bober100 Скачать
1 | 0
TNT serials [ 19.24 GB ] Физрук / Сезон 4 / Серии 1-16 из 16 [2017 HDTV 1080i] bober100 Скачать
1 | 0
TNT serials [ 4.23 GB ] Физрук / Сезон: 4 / Серии: 1-16 из 16 [2017 SATRip-AVC] aleksan55 Скачать
1 | 0


Последний раз редактировалось: bober100 (2017-11-04 11:13), всего редактировалось 3 раз(а)

28-11-2019 20:33  

Отключить всю рекламу на сайте

26-10-2017 20:14 Физрук Скачать торрент  

скачавшие есть, а впечатлений нет, обидноpiratbit.org



31-10-2017 19:40 Физрук Скачать торрент  

Спасибо за раздачи!piratbit.org



    Дорогой пользователь! Огромная просьба, поблагодарите релизера, оцените раздачу и оставьте свои комментарий, если Вы скачали Физрук через торрент бесплатно! Внесите свою лепту в развитие PiratBit!
    Комментировать посты могут только пользователи прошедшие не сложную регистрацию
    Показать сообщения:    

    Физрук через торрент
    Скачать бесплатно Физрук
    Физрук скачать торрент
    Физрук смотреть онлайн
    Cкачать фильм Физрук бесплатно
    Физрук скачать торрент в хорошем качестве
    Физрук смотреть онлайн бесплатно в хорошем качестве


    Вы не можете начинать темы
    Вы не можете отвечать на сообщения
    Вы не можете редактировать свои сообщения
    Вы не можете удалять свои сообщения
    Вы не можете голосовать в опросах
    Вы не можете прикреплять файлы к сообщениям
    Вы можете скачивать файлы