1 сезон

3 сезон

iTunes

1

iTunes

DUB Netflix

iTunes

13

1 сезон

RePack

30

Deluxe

pack

Легкие деньги

ВАЖНО

ИГРА 18+

pack

RePack

MK11

RePack

jed

RePack

fifa19

RePack

RDR2

RePack

NEED FOR SPEED™ PAYBACK

4 сезон

9 сезон

Бесстыжие 9 сезон

Все сериалы

все сериалы на PB.wtf

RePack

FAR CRY 5

Anonymous, доброй ночи, мы не успеваем до 1 числа собрать деньги на оплату серверов, помогите нам пожалуйста в это трудное время. В качестве благодарности мы отключим Вам всю рекламу на сайте (укажите свой ник в строку Ваше имя)!

×
  
Magnet ссылка

Физрук / 2 Сезон: / Серии 1-20 из 20 (Сергей Сенцов, Фёдор Стуков) [2014, Россия, комедия, SATRip) piratbit.org

Физрук через торрент piratbit.org

Размер: 6.42 GB | Добавлен: 6 лет 6 мес. назад | Торрент скачан:1580 раз
Скачать  

10-12-2014 12:44 Физрук Скачать торрент  

Физрук


  • Год выпуска: 2014
  • Страна: Россия
  • Жанр: комедия
  • Продолжительность: 00:23:03 (Серия)
  • Перевод: Не требуется

  • Режиссер: Сергей Сенцов, Фёдор Стуков
  • В ролях:

    Дмитрий Нагиев (Фома), Александр Гордон (Мамай), Полина Гренц (Саша Мамаева), Анастасия Панина (Татьяна Александровна), Владимир Сычев (Псих), Даниил Вахрушев (Валя Вялых), Андрей Крыжний (Банан), Артур Сопельник (Антон «Борзый»), Оксана Сидоренко (Полина), Карина Мишулина (Света), Роман Индык (Альберт Моисеевич), Елена Муравьева (Эльвира Петровна)

  • Описание:
    Это история о столкновении двух времен: «лихих» 90-х и «стабильных» десятых. Главный герой Фома всю жизнь был «правой рукой» влиятельного человека с полукриминальным прошлым. Когда «хозяин» выгнал его на пенсию, Фома решил любым способом вернуться обратно. Сначала казалось, что все будет просто: подобраться к ребенку бывшего босса, прогнуться, напомнить о себе и вернуться в дело. Но план Фомы рушится в первый же день. В школе ему приходится задержаться надолго. Попав в абсолютно незнакомый мир детей и учителей, который кардинально отличается от привычного ему круга, Фома не только меняет свою жизнь, но и меняется сам.
  • Рейтинг:



  • Качество: SATRip
  • Формат: :AVI
  • Видео кодек: XviD
  • Аудио кодек: MP3
  • Видео: 720x400 (16:9), 1799 kbps, 25 fps, 0,250 bpp
  • Аудио: 2.0 / 48 kHz / 128 kbps /
  • Релиз от: GEKADOL

    Код:

    General
    Complete name                            : I:\Fizruk.2.sezon.SATRip\Fizruk-2.Seriya.20.SATRip.avi
    Format                                   : AVI
    Format/Info                              : Audio Video Interleave
    File size                                : 319 MiB
    Duration                                 : 23mn 3s
    Overall bit rate                         : 1 938 Kbps
    Writing application                      : VirtualDubMod 1.5.10.3 | www.virtualdub-fr.org || (build 2550/release)
    Writing library                          : VirtualDubMod build 2550/release

    Video
    ID                                       : 0
    Format                                   : MPEG-4 Visual
    Format profile                           : Advanced Simple@L5
    Format settings, BVOP                    : 2
    Format settings, QPel                    : No
    Format settings, GMC                     : No warppoints
    Format settings, Matrix                  : Default (H.263)
    Codec ID                                 : XVID
    Codec ID/Hint                            : XviD
    Duration                                 : 23mn 3s
    Bit rate                                 : 1 800 Kbps
    Width                                    : 720 pixels
    Height                                   : 400 pixels
    Display aspect ratio                     : 16:9
    Frame rate                               : 25.000 fps
    Color space                              : YUV
    Chroma subsampling                       : 4:2:0
    Bit depth                                : 8 bits
    Scan type                                : Progressive
    Compression mode                         : Lossy
    Bits/(Pixel*Frame)                       : 0.250
    Stream size                              : 297 MiB (93%)
    Writing library                          : XviD 1.2.1 (UTC 2008-12-04)

    Audio
    ID                                       : 1
    Format                                   : MPEG Audio
    Format version                           : Version 1
    Format profile                           : Layer 3
    Mode                                     : Joint stereo
    Mode extension                           : MS Stereo
    Codec ID                                 : 55
    Codec ID/Hint                            : MP3
    Duration                                 : 23mn 3s
    Bit rate mode                            : Constant
    Bit rate                                 : 128 Kbps
    Channel(s)                               : 2 channels
    Sampling rate                            : 48.0 KHz
    Compression mode                         : Lossy
    Stream size                              : 21.1 MiB (7%)
    Alignment                                : Aligned on interleaves
    Interleave, duration                     : 40 ms (1.00 video frame)
    Interleave, preload duration             : 504 ms
    Writing library                          : LAME3.99r
    Encoding settings                        : -m j -V 4 -q 2 -lowpass 17 -b 128


    Скриншоты:



    piratbit.org



  • Скачать Физрук через торрент https://pic1.kartinco.top/images/10/i3lmq.jpg Скачать фильм Физрук через торрент бесплантно в хорошем качестве Описание: Это история о столкновении двух времен: «лихих» 90-х и «стабильных» десятых. Главный герой Фома всю жизнь был «правой рукой» ... 9.7 10 60
    Info! Золотая раздача, скачанное не засчитывается.
    Торрент: Зарегистрирован [2014-12-10 12:44] · скачан: 1 580 раз
    Статус: √ проверено
    Размер: 6.42 GB
    Как cкачать? Как скачать Физрук через торрент | UTorrent

    % Раздел Тема Автор DL S | L
    Сборники и Сиквелы (48-60 fps) [ 20.4 GB ] Физрук / 2 Сезон: / Серии 1-20 из 20 [2014 Россия WEB-DL 720p 50fps] от R.G. HD-Films Ressident Скачать
    1 | 0
    TNT serials [ 11.56 GB ] Физрук / 2 сезон / 1-9 серии из 20 [2014 SATRip] zikwal Скачать
    1 | 0
    TNT serials [ 10.77 GB ] Физрук / 2 Сезон: / Серии 1-20 из 20 [2014 Россия WEB-DL 720) GEKADOL Скачать
    1 | 0
    TNT serials [ 6.73 GB ] Физрук / 2 Сезон: / Серии 1-20 из 20 [2014 Россия WEB-DLRip) GEKADOL Скачать
    1 | 0
    Видео для мобильных (3GP, MP4,AVI) [ 745 MB ] [Мобильное видео] Физрук / 2 сезон / 1-7 серии из 20 [2014 WEB-DL] Anonymous Скачать
    1 | 0


    Последний раз редактировалось: GEKADOL (2016-03-16 06:15), всего редактировалось 1 раз

    28-11-2019 20:33  

    Отключить всю рекламу на сайте

    10-12-2014 16:12 Физрук Скачать торрент  

    о, блин... вот тебе и конец...piratbit.org



    10-12-2014 17:00 Физрук Скачать торрент  

    NikitinAO, Не конец...весны ждем..2 сезон слабее но не менее интересный и прикольный...Фома попал....piratbit.org



    10-12-2014 20:15 Физрук Скачать торрент  

    Ворон,
    точно сказано...,piratbit.org



      Дорогой пользователь! Огромная просьба, поблагодарите релизера, оцените раздачу и оставьте свои комментарий, если Вы скачали Физрук через торрент бесплатно! Внесите свою лепту в развитие PiratBit!
      Комментировать посты могут только пользователи прошедшие не сложную регистрацию
      Показать сообщения:    

      Физрук через торрент
      Скачать бесплатно Физрук
      Физрук скачать торрент
      Физрук смотреть онлайн
      Cкачать фильм Физрук бесплатно
      Физрук скачать торрент в хорошем качестве
      Физрук смотреть онлайн бесплатно в хорошем качестве


      Вы не можете начинать темы
      Вы не можете отвечать на сообщения
      Вы не можете редактировать свои сообщения
      Вы не можете удалять свои сообщения
      Вы не можете голосовать в опросах
      Вы не можете прикреплять файлы к сообщениям
      Вы можете скачивать файлы