1 сезон

3 сезон

iTunes

1

iTunes

DUB Netflix

iTunes

13

1 сезон

RePack

30

Deluxe

pack

Легкие деньги

ВАЖНО

ИГРА 18+

pack

RePack

MK11

RePack

jed

RePack

fifa19

RePack

RDR2

RePack

NEED FOR SPEED™ PAYBACK

4 сезон

9 сезон

Бесстыжие 9 сезон

Все сериалы

все сериалы на PB.wtf

RePack

FAR CRY 5

Anonymous, добрый день, мы не успеваем до 1 числа собрать деньги на оплату серверов, помогите нам пожалуйста в это трудное время. В качестве благодарности мы отключим Вам всю рекламу на сайте (укажите свой ник в строку Ваше имя)!

×
  
Magnet ссылка

Физрук / Сезон 4 / Серии 1-16 из 16 (Игорь Волошин) [2017, Комедия, HDTV 1080i] piratbit.org

Физрук через торрент piratbit.org

Размер: 19.24 GB | Добавлен: 3 года 7 мес. назад | Торрент скачан:72 раза
Скачать  

09-10-2017 19:31 Физрук Скачать торрент  

Физрук
Год выпуска: 2017
Страна: Россия
Производство: Кинокомпания «Good Story Media»
Жанр: Комедия
Продолжительность: 16 ~ 00:24:00
Перевод: Не требуется
Субтитры: Нет

Режиссер: Игорь Волошин

rating

В ролях:

Дмитрий Нагиев, Александр Гордон (II), Полина Гренц, Анастасия Панина, Владимир Сычёв, Даниил Вахрушев, Андрей Крыжний, Артур Сопельник, Оксана Сидоренко, Карина Мишулина, Роман Индык, Елена Муравьёва, Евгений Кулаков, Виктория Клинкова, Екатерина Мельник, Ян Цапник, Екатерина Айсина, Наталья Коренная, Варвара Богданова, Мария Киселёва (II), Иван Мудров, Дмитрий Гогу, Владимир Жеребцов, Владимир Епископосян, Сергей Серов, Сергей Журавлёв, Любовь Германова, Борис Клюев, Дмитрий Власкин, Екатерина Шукшина

Описание:

Железногорск, классическая русская провинция, не богатая, но уютная и знакомая. Здесь и коррумпированные чиновники, и низкие зарплаты, и плохие дороги… Другими словами — привычный набор наших общероссийских проблем, одна из которых — противостояние драматического театра и местной администрации, в лице худрука Эрнеста Шиловского и зам мэра Горыжникова. Шиловский весь в долгах, а местные власти претендуют на здание театра, чтобы перестроить его под торговый центр.Фома знакомится с отцом — немного странным, совершенно непохожим на него человеком, и принимает Эрнеста Петровича со всеми его недостатками и проблемами. А раз так, то Фома остается в Железногорске, и будет спасать местный театр, а заодно наведет в городе свой порядок. Физрук теперь худрук.

Качество: HDTV 1080i
Формат: MPEG-TS
Видео кодек: AVC
Аудио кодек: MP2

Видео: 1920х1080 (16:9), 25 fps, AVC MPEG-4 (x264), High@L4.0 ~ 8000 kbps avg, 0.121 bit/pixel
Аудио: 48 kHz, MPEG Layer 2, 2 ch, ~ 192 kbps avg
скриншот   скриншот   скриншот   скриншот  

Общее
Идентификатор : 1 (0x1)
Полное имя : D:\Fizruk.s04.2017.HDTV.(1080i).Nikolspup\Fizruk.s04.(01.seriya).2017.HDTV.(1080i).Nikolspup.ts
Формат : MPEG-TS
Размер файла : 1,40 Гбайт
Продолжительность : 23 м. 47 с.
Режим общего битрейта : Переменный
Общий поток : 8415 Кбит/сек

Видео
Идентификатор : 207 (0xCF)
Идентификатор меню : 2207 (0x89F)
Формат : AVC
Формат/Информация : Advanced Video Codec
Профиль формата : High@L4
Параметр CABAC формата : Да
Параметр ReFrames формата : 4 кадра
Идентификатор кодека : 27
Продолжительность : 23 м. 47 с.
Битрейт : 7806 Кбит/сек
Ширина : 1920 пикселей
Высота : 1080 пикселей
Соотношение сторон : 16:9
Частота кадров : 25,000 кадров/сек
Стандарт вещания : Component
Цветовое пространство : YUV
Субдискретизация насыщенности : 4:2:0
Битовая глубина : 8 бит
Тип развёртки : Чересстрочная
Метод сохранения типа развёртки : Раздельные поля
Порядок развёртки : Верхнее поле первое
Бит/(Пиксели*Кадры) : 0.151
Размер потока : 1,30 Гбайт (93%)
Цветовой диапазон : Limited
Основные цвета : BT.709
Характеристики трансфера : BT.709
Коэффициенты матрицы : BT.709

Аудио
Идентификатор : 307 (0x133)
Идентификатор меню : 2207 (0x89F)
Формат : MPEG Audio
Версия формата : Version 1
Профиль формата : Layer 2
Идентификатор кодека : 3
Продолжительность : 23 м. 47 с.
Вид битрейта : Постоянный
Битрейт : 192 Кбит/сек
Каналы : 2 канала
Частота : 48,0 КГц
Метод сжатия : С потерями
Размер потока : 32,7 Мбайт (2%)
Язык : Russian

Когда раздача ведётся путём добавления новых серий, при каждом добавлении создётся новый торрент. Чтобы начать докачку новой серии, пользователям необходимо сделать следующее:
(1) остановить скачивание,
(2) удалить старый торрент у себя из клиента (старые серии удалять не надо),
(3) скачать новый торрент и запустить его у себя в клиенте вместо старого, при этом указать клиенту путь в старую папку, куда и должно происходить скачивание новых серий.
Ваш клиент при этом должен произвести хеширование (проверку) старой папки (если не производит сам - помогите ему сделать это), и будет докачивать только те серии, которых у вас ещё нет. Старые серии при этом не удаляются, а продолжают раздаваться!
Eсли вы уже удалили старые серии, то предотвратить повторную закачку старых серий можно, отжав галочку в соответсвующих местах при запуске нового торрента. По возможности, желательно не удалять старые серии как можно дольше, чтобы релизёр не столько продолжал раздавать старые серии, а смог сконцентрироваться на новых.
piratbit.org



Скачать Физрук через торрент http://s010.radikal.ru/i314/1710/bf/15cb978eea12.jpg Скачать фильм Физрук через торрент бесплантно в хорошем качестве Описание: Железногорск, классическая русская провинция, не богатая, но уютная и знакомая. Здесь и коррумпированные чиновники, и низкие ... 10 10 22
Info! Золотая раздача, скачанное не засчитывается.
Торрент: Зарегистрирован [2017-11-01 20:19] · скачан: 72 раз
Статус: √ проверено
Размер: 19.24 GB
Как cкачать? Как скачать Физрук через торрент | UTorrent

% Раздел Тема Автор DL S | L
TNT serials [ 17.98 GB ] Физрук / Сезон: 4 / Серии 1-16 из 16 [2017 HDTV 1080p] R.G.Generalfilm White Smoke Скачать
1 | 0
TNT serials [ 4.91 GB ] Физрук / Сезон: 4 / Серии 1-16 из 16 [2017 Россия HDTVRip] + [Фильм о сериале] GEKADOL Скачать
1 | 0
TNT serials [ 9.53 GB ] Физрук / Сезон 4 / Серии 1-16 из 16 [2017 WEB-DL 720p] bober100 Скачать
1 | 0
TNT serials [ 4.68 GB ] Физрук / Сезон 4 / Серии 1-16 из 16 [2017 WEB-DLRip] bober100 Скачать
1 | 0
TNT serials [ 4.23 GB ] Физрук / Сезон: 4 / Серии: 1-16 из 16 [2017 SATRip-AVC] aleksan55 Скачать
1 | 0


Последний раз редактировалось: bober100 (2017-11-01 20:19), всего редактировалось 6 раз(а)

28-11-2019 20:33  

Отключить всю рекламу на сайте

22-10-2017 12:12 Физрук Скачать торрент  

Хороший сериал,может из за игры Нагиева только)))) piratbit.org



01-11-2017 20:44 Физрук Скачать торрент  

Ухты, вот и финальная серия. Как-то все быстро "пролетело". Перезагрузка пошла сериалу на пользу, ждем что будет в 5-м.piratbit.org



01-11-2017 20:53 Физрук Скачать торрент  

Ворон, По слухам это финальный сезонpiratbit.org



    Дорогой пользователь! Огромная просьба, поблагодарите релизера, оцените раздачу и оставьте свои комментарий, если Вы скачали Физрук через торрент бесплатно! Внесите свою лепту в развитие PiratBit!
    Комментировать посты могут только пользователи прошедшие не сложную регистрацию
    Показать сообщения:    

    Физрук через торрент
    Скачать бесплатно Физрук
    Физрук скачать торрент
    Физрук смотреть онлайн
    Cкачать фильм Физрук бесплатно
    Физрук скачать торрент в хорошем качестве
    Физрук смотреть онлайн бесплатно в хорошем качестве


    Вы не можете начинать темы
    Вы не можете отвечать на сообщения
    Вы не можете редактировать свои сообщения
    Вы не можете удалять свои сообщения
    Вы не можете голосовать в опросах
    Вы не можете прикреплять файлы к сообщениям
    Вы можете скачивать файлы