1 сезон

iTunes

iTunes

1

Line

MVO

iTunes

13

1 сезон

RePack

30

Deluxe

pack

Лицензия

ВАЖНО

ИГРА 18+

pack

RePack

MK11

RePack

jed

RePack

fifa19

RePack

RDR2

RePack

NEED FOR SPEED™ PAYBACK

4 сезон

9 сезон

Бесстыжие 9 сезон

Все сериалы

все сериалы на PB.wtf

RePack

FAR CRY 5

Anonymous, доброе утро, мы катастрофически не успеваем собрать деньги на оплату серверов, помогите нам пожалуйста 5,10,15р., для нас важна любая помощь . В качестве благодарности мы отключим Вам всю рекламу на сайте (укажите свой ник в строку Ваше имя)!

×
  
Magnet ссылка

Другой мир / Underworld (Лен Уайзман) [2003 г., Фэнтези, Боевик, Триллер, BDRip-AVC, Дубляж] [Расширенная версия] piratbit.org

Другой мир через торрент piratbit.org

Размер: 2.98 GB | Добавлен: 3 года 5 мес. назад | Торрент скачан:51 раз
Скачать  

23-11-2017 00:29 Другой мир Скачать торрент  

Другой мир / UnderworldГод выпуска: 2003
Страна: США
Жанр: Фэнтези, Боевик, Триллер
Продолжительность: 02:13:37
Перевод: Профессиональный (полное дублирование) + вставки многоголосого от Киномания на расширенные сцены
Субтитры: отсутствуют

Режиссер: Лен Уайзман

Премьера в мире: 8 сентября 2003

rating

В ролях: Кейт Бекинсейл, Скотт Спидман, Майкл Шин, Шэйн Бролли, Билл Найи, Эрвин Ледер, София Майлс, Робби Ги, Вентворт Миллер, Кевин Гревье

Описание: Столетиями властители царства мрака, вампиры и оборотни ведут беспощадную войну, невидимую человеческому взору. Бесстрашная Селина, воин-вампир, каждую ночь истребляет оборотней, влекомая неутолимой жаждой мести. Ее клан уверен, что вампирам удалось одержать верх над заклятыми врагами, но Селина подозревает, что у оборотней есть тайный план, сулящий гибель ее роду.
В центре этого плана – смертный парень Майкл. Его генетический код – ключ к созданию сверхсущества, которое будет бессмертно и неуязвимо. Теперь Селина должна любой ценой первой добраться до него, чтобы определить исход вечного противостояния двух могущественных рас, которых люди до сих пор считали мифом...

Качество: BDRip-AVC
Формат: MKV
Видео кодек: H.264
Аудио кодек: AC3
Видео: AVC/H.264, 1024х432 (2,40:1), ~2745 kbps, 0.259 bit/pixel
Аудио#1: Русский: AC3, 6 ch, 448 kbps - Профессиональный (полное дублирование) + вставки многоголосого от Киномания на расширенные сцены
Релиз от: winchester00100010
Общее
Уникальный идентификатор : 204888923031688886361611985499731077704 (0x9A242BD4AE3A8D999EF1E0BEE0ED2A48)
Полное имя : E:\Торрент файлы раздач вместе с фильмами\Underworld.Unrated.2003.BDRip-AVC.mkv
Формат : Matroska
Версия формата : Version 2
Размер файла : 2,98 Гбайт
Продолжительность : 2 ч. 13 м.
Общий поток : 3192 Кбит/сек
Дата кодирования : UTC 2017-11-19 10:47:41
Программа кодирования : mkvmerge v7.8.0 ('River Man') 32bit built on Apr 3 2015 12:11:22
Библиотека кодирования : libebml v1.3.1 + libmatroska v1.4.2

Видео
Идентификатор : 1
Формат : AVC
Формат/Информация : Advanced Video Codec
Профиль формата : High@L4.1
Настройки формата : CABAC / 12 Ref Frames
Параметр CABAC формата : Да
Параметр RefFrames формата : 12 кадров
Идентификатор кодека : V_MPEG4/ISO/AVC
Продолжительность : 2 ч. 13 м.
Битрейт : 2745 Кбит/сек
Ширина : 1024 пикселя
Высота : 432 пикселя
Соотношение сторон : 2,40:1
Режим частоты кадров : Постоянный
Частота кадров : 23,976 (24000/1001) кадра/сек
Цветовое пространство : YUV
Субдискретизация насыщенности : 4:2:0
Битовая глубина : 8 бит
Тип развёртки : Прогрессивная
Бит/(Пиксели*Кадры) : 0.259
Размер потока : 2,50 Гбайт (84%)
Библиотека кодирования : x264 core 146 r2538 121396c
Настройки программы : cabac=1 / ref=12 / deblock=1:-3:-3 / analyse=0x3:0x113 / me=umh / subme=9 / psy=1 / psy_rd=1.00:0.00 / mixed_ref=1 / me_range=24 / chroma_me=1 / trellis=2 / 8x8dct=1 / cqm=0 / deadzone=21,11 / fast_pskip=0 / chroma_qp_offset=-2 / threads=12 / lookahead_threads=2 / sliced_threads=0 / nr=0 / decimate=0 / interlaced=0 / bluray_compat=0 / constrained_intra=0 / bframes=6 / b_pyramid=2 / b_adapt=2 / b_bias=0 / direct=3 / weightb=1 / open_gop=0 / weightp=2 / keyint=240 / keyint_min=23 / scenecut=40 / intra_refresh=0 / rc_lookahead=40 / rc=2pass / mbtree=0 / bitrate=2745 / ratetol=1.0 / qcomp=0.60 / qpmin=0 / qpmax=69 / qpstep=4 / cplxblur=20.0 / qblur=0.5 / vbv_maxrate=14000 / vbv_bufsize=14000 / nal_hrd=none / filler=0 / ip_ratio=1.40 / pb_ratio=1.30 / aq=1:1.00
Default : Да
Forced : Нет

Аудио
Идентификатор : 2
Формат : AC-3
Формат/Информация : Audio Coding 3
Идентификатор кодека : A_AC3
Продолжительность : 2 ч. 13 м.
Вид битрейта : Постоянный
Битрейт : 448 Кбит/сек
Каналы : 6 каналов
Расположение каналов : Front: L C R, Side: L R, LFE
Частота : 48,0 КГц
Частота кадров : 31,250 кадров/сек (1536 SPF)
Битовая глубина : 16 бит
Метод сжатия : С потерями
Размер потока : 428 Мбайт (14%)
ServiceKind/String : Complete Main
Default : Да
Forced : Нет

piratbit.org



Скачать Другой мир через торрент https://pic1.kartinco.top/images/11/79sje.jpg Скачать фильм Другой мир через торрент бесплантно в хорошем качестве Описание: Столетиями властители царства мрака, вампиры и оборотни ведут беспощадную войну, невидимую человеческому взору. Бесстрашная ... 10 10 8
Info! Золотая раздача, скачанное не засчитывается.
Торрент: Зарегистрирован [2018-03-03 21:08] · скачан: 51 раз
Статус: √ проверено
Размер: 2.98 GB
Как cкачать? Как скачать Другой мир через торрент | UTorrent

% Раздел Тема Автор DL S | L
Фильмы 2016 [DVDrip, WEB-DLRip, HDrip] (DUB, MVO) [ 1.47 GB ] Другой мир: Войны крови / Underworld: Blood Wars [2016 HDRip ] winchester00100010 Скачать
1 | 1
Фильмы (Blu-ray, BD-Remux, HDDVD) [ 22.41 GB ] Другой мир: Войны крови / Underworld: Blood Wars [2016 BDRemux 1080p] DUB + 3xAVO sheker187 Скачать
1 | 0
Ultra HD (UHD: 2K, 4K, 8K) — видео сверхвысокой чёткости [ 49.33 GB ] Другой мир: Войны крови / Underworld: Blood Wars [2016 UHD Blu-ray 2160p] DUB [] bober100 Скачать
1 | 0
Ultra HD (UHD: 2K, 4K, 8K) — видео сверхвысокой чёткости [ 45.33 GB ] Другой мир / Underworld [2003 UHD BDRemux 2160p] DUB [Театральная версия] bober100 Скачать
1 | 0
Фильмы 2009 [ 2.17 GB ] Другой мир: Восстание ликанов / Underworld: Rise of the Lycans [2009 BDRip-AVC ] winchester00100010 Скачать
1 | 0
Фильмы 2006-2008 [ 2.17 GB ] Другой мир 2: Эволюция / Underworld: Evolution [2006 BDRip-AVC ] winchester00100010 Скачать
1 | 0
Ultra HD (UHD: 2K, 4K, 8K) — видео сверхвысокой чёткости [ 37.55 GB ] Другой мир: Войны крови / Underworld: Blood Wars [2016 UHD BDRemux 2160p] DUB [] bober100 Скачать
1 | 0


Последний раз редактировалось: winchester00100010 (2018-03-03 21:08), всего редактировалось 1 раз

28-11-2019 20:33  

Отключить всю рекламу на сайте

11-12-2017 16:32 Другой мир Скачать торрент  

Перезалил торрент файлик, так как человек писал вконтакте мне, что
он не может скачать и не качается раздача, перекачайте торрентpiratbit.org



03-03-2018 21:22 Другой мир Скачать торрент  

Перезалил торрент файлик, так как человек писал вконтакте мне, что
он не может скачать и не качается раздача, перекачайте торрентpiratbit.org



    Дорогой пользователь! Огромная просьба, поблагодарите релизера, оцените раздачу и оставьте свои комментарий, если Вы скачали Другой мир через торрент бесплатно! Внесите свою лепту в развитие PiratBit!
    Комментировать посты могут только пользователи прошедшие не сложную регистрацию
    Показать сообщения:    

    Другой мир через торрент
    Скачать бесплатно Другой мир
    Другой мир скачать торрент
    Другой мир смотреть онлайн
    Cкачать фильм Другой мир бесплатно
    Другой мир скачать торрент в хорошем качестве
    Другой мир смотреть онлайн бесплатно в хорошем качестве


    Вы не можете начинать темы
    Вы не можете отвечать на сообщения
    Вы не можете редактировать свои сообщения
    Вы не можете удалять свои сообщения
    Вы не можете голосовать в опросах
    Вы не можете прикреплять файлы к сообщениям
    Вы можете скачивать файлы