2 сезон

iTunes

WEBRip

1

2 сезон

iTunes

1 сезон

1 сезон

RePack

30

Ultimate

ВАЖНО

ИГРА 18+

pack

RePack

MK11
pack

Легкие деньги

RePack

jed

RePack

fifa19

RePack

RDR2

RePack

NEED FOR SPEED™ PAYBACK

4 сезон

9 сезон

Бесстыжие 9 сезон

Все сериалы

все сериалы на PB.wtf

RePack

FAR CRY 5

Anonymous, доброе утро, мы не успеваем собрать деньги на оплату серверов за февраль, помогите нам пожалуйста в это трудное время. В качестве благодарности мы отключим Вам всю рекламу на сайте (укажите свой ник в строку Ваше имя)!

×
  
Magnet ссылка

Kingsman: Золотое кольцо / Kingsman: The Golden Circle (Мэттью Вон) [2017, боевик, комедия, приключения, WEB-DL 1080p] [Ukr DUB] piratbit.org

Kingsman: Золотое кольцо через торрент piratbit.org

Размер: 5.05 GB | Добавлен: 3 года 3 мес. назад | Торрент скачан:248 раз
Скачать  

26-11-2017 22:51 Kingsman: Золотое кольцо Скачать торрент  

Kingsman: Золотое кольцо / Kingsman: The Golden Circle
Год выпуска: 2017
Страна: Великобритания, США
Жанр: боевик, комедия, приключения
Продолжительность: 02:21:12
Перевод: Украинский (дублированный)
Субтитры: английские

Режиссер: Мэттью Вон

В ролях: Колин Фёрт, Тэрон Эджертон, Эдвард Холкрофт, Гордон Александр, Марк Стронг, Ханна Альстрём, Кэлвин Демба, Томас Тургус, Тоби Бакаре, Джулианна Мур

Описание: Когда штаб-квартиры секретной службы «Kingsman» уничтожены, и весь мир оказался в заложниках у неизвестных, британские суперагенты обнаруживают, что в один день вместе с их организацией была еще создана американская разведка — «Statesman». Теперь эти две элитные спецслужбы должны объединиться и бросить вызов общему безжалостному врагу, чтобы спасти мир, то есть заняться тем, что для Эггси становится обычным делом...



Качество: WEB-DL 1080p
Формат: MKV
Видео кодек: AVC
Аудио кодек: АС3
Видео: 1920 х 802 , 23.976 fps, ~4541 kbps avg
Аудио: 48.0 kHz, AC3 Dolby Digital, 2 ch, ~192 kbps - Ukr DUB
Аудио: 48.0 kHz, AC3 Dolby Digital, 6 ch, ~384 kbps - ENG

Релиз --
General
Unique ID : 183688000178295310106043214590118461745 (0x8A3105A1950AF8ABBED84AED91480131)
Complete name : F:\Kingsman The Golden Circle (2017) WEB-DL 1080p [UKR_ENG] [ Hurtom].mkv
Format : Matroska
Format version : Version 4 / Version 2
File size : 5.05 GiB
Duration : 2 h 21 min
Overall bit rate : 5 119 kb/s
Encoded date : UTC 2017-11-26 16:28:11
Writing application : mkvmerge v18.0.0 ('Apricity') 64-bit
Writing library : libebml v1.3.5 + libmatroska v1.4.8
Cover : Yes
Attachments : cover.jpg

Video
ID : 1
Format : AVC
Format/Info : Advanced Video Codec
Format profile : High@L4
Format settings : CABAC / 5 Ref Frames
Format settings, CABAC : Yes
Format settings, RefFrames : 5 frames
Codec ID : V_MPEG4/ISO/AVC
Duration : 2 h 21 min
Bit rate : 4 441 kb/s
Width : 1 920 pixels
Height : 802 pixels
Display aspect ratio : 2.40:1
Frame rate mode : Constant
Frame rate : 23.976 (24000/1001) FPS
Color space : YUV
Chroma subsampling : 4:2:0
Bit depth : 8 bits
Scan type : Progressive
Bits/(Pixel*Frame) : 0.120
Stream size : 4.38 GiB (87%)
Language : English
Default : Yes
Forced : No
Color range : Limited
Color primaries : BT.709
Transfer characteristics : BT.709
Matrix coefficients : BT.709

Audio #1
ID : 2
Format : AC-3
Format/Info : Audio Coding 3
Format settings, Endianness : Big
Codec ID : A_AC3
Duration : 2 h 21 min
Bit rate mode : Constant
Bit rate : 192 kb/s
Channel(s) : 2 channels
Channel positions : Front: L R
Sampling rate : 48.0 kHz
Frame rate : 31.250 FPS (1536 SPF)
Bit depth : 16 bits
Compression mode : Lossy
Delay relative to video : -43 ms
Stream size : 194 MiB (4%)
Title : AC3 2.0 @ 192 kbps - DUB, Line
Language : Ukrainian
Service kind : Complete Main
Default : Yes
Forced : Yes

Audio #2
ID : 3
Format : AC-3
Format/Info : Audio Coding 3
Format settings, Endianness : Big
Codec ID : A_AC3
Duration : 2 h 21 min
Bit rate mode : Constant
Bit rate : 384 kb/s
Channel(s) : 6 channels
Channel positions : Front: L C R, Side: L R, LFE
Sampling rate : 48.0 kHz
Frame rate : 31.250 FPS (1536 SPF)
Bit depth : 16 bits
Compression mode : Lossy
Delay relative to video : -43 ms
Stream size : 388 MiB (8%)
Title : Original
Language : English
Service kind : Complete Main
Default : No
Forced : No

Text #1
ID : 4
Format : UTF-8
Codec ID : S_TEXT/UTF8
Codec ID/Info : UTF-8 Plain Text
Title : Full
Language : English
Default : No
Forced : No

Text #2
ID : 5
Format : UTF-8
Codec ID : S_TEXT/UTF8
Codec ID/Info : UTF-8 Plain Text
Title : SHD
Language : English
Default : No
Forced : No

Menu
00:00:00.000 : en:Chapter 1
00:04:50.957 : en:Chapter 2
00:09:38.452 : en:Chapter 3
00:13:35.605 : en:Chapter 4
00:18:53.297 : en:Chapter 5
00:24:56.284 : en:Chapter 6
00:28:42.343 : en:Chapter 7
00:32:51.300 : en:Chapter 8
00:39:17.728 : en:Chapter 9
00:43:20.846 : en:Chapter 10
00:48:25.567 : en:Chapter 11
00:53:53.102 : en:Chapter 12
00:58:30.254 : en:Chapter 13
01:05:03.897 : en:Chapter 14
01:09:51.434 : en:Chapter 15
01:13:33.739 : en:Chapter 16
01:19:40.856 : en:Chapter 17
01:23:44.099 : en:Chapter 18
01:28:54.284 : en:Chapter 19
01:33:24.220 : en:Chapter 20
01:40:13.754 : en:Chapter 21
01:45:02.250 : en:Chapter 22
01:49:37.483 : en:Chapter 23
01:55:14.987 : en:Chapter 24
02:01:39.830 : en:Chapter 25
02:05:43.031 : en:Chapter 26
02:12:35.401 : en:Chapter 27
02:15:14.268 : en:Chapter 28
piratbit.org



Скачать Kingsman: Золотое кольцо через торрент http://i97.fastpic.ru/big/2017/1127/43/e3cfa8a5fef5fd5eb1dc051693358543.jpg Скачать фильм Kingsman: Золотое кольцо через торрент бесплантно в хорошем качестве Описание: Когда штаб-квартиры секретной службы «Kingsman» уничтожены, и весь мир оказался в заложниках у неизвестных, британские ... 7.6 10 15
Info! Золотая раздача, скачанное не засчитывается.
Торрент: Зарегистрирован [2017-11-26 22:51] · скачан: 248 раз
Статус: T временная
Размер: 5.05 GB
Как cкачать? Как скачать Kingsman: Золотое кольцо через торрент | UTorrent

% Раздел Тема Автор DL S | L
Ultra HD (UHD: 2K, 4K, 8K) — видео сверхвысокой чёткости [ 67.46 GB ] Kingsman: Золотое кольцо / Kingsman: The Golden Circle [2017 UHD BDRemux 2160p] DUB [] + 4xAVO sheker187 Скачать
1 | 0
Фильмы (Blu-ray, BD-Remux, HDDVD) [ 47.83 GB ] Kingsman: Золотое кольцо / Kingsman: The Golden Circle [2017 BD Remux 1080p] 3xAVO+2xDUB [] bober100 Скачать
1 | 0
Ultra HD (UHD: 2K, 4K, 8K) — видео сверхвысокой чёткости [ 58.21 GB ] Kingsman: Золотое кольцо / Kingsman: The Golden Circle [2017 UHD BDRemux 2160p] AVO [Ю.Сербин] +DUB [] bober100 Скачать
1 | 0
Фильмы [HD 720p, 1080p] (Хороший звук DUB, MVO) [ 7.17 GB ] Kingsman: Золотое кольцо / Kingsman: The Golden Circle [2017 BDRip 720p] DUB [] bober100 Скачать
3 | 0
Фильмы 2017 [DVDrip, WEB-DLRip, HDrip] (DUB, MVO) [ 2.19 GB ] Kingsman: Золотое кольцо / Kingsman: The Golden Circle [2017 BDRip-AVC] sokol_ok Скачать
3 | 0
Фильмы с авторской озвучкой [ 2.99 GB ] Kingsman: Золотое кольцо / Kingsman: The Golden Circle [2017 BDRip-AVC] AVO [Сербин] Ukr - ExKinoRay Enigma2010 Скачать
2 | 0
Фильмы (HD 720p, 1080p) (48-60 fps) [ 16.74 GB ] Kingsman: Золотое кольцо / Kingsman: The Golden Circle [2017 BDRip 1080p / 60 FPS Dub/ Original] Tiberiumsun69 Скачать
3 | 0

28-11-2019 20:33  

Отключить всю рекламу на сайте

27-11-2017 04:58 Kingsman: Золотое кольцо Скачать торрент  

Усраться можно!piratbit.org



27-11-2017 12:16 Kingsman: Золотое кольцо Скачать торрент  

kossma80 писал(а):

Усраться можно!

хз чем вы там занимаетесь piratbit.org



01-12-2017 22:12 Kingsman: Золотое кольцо Скачать торрент  

Спасибо!! :)piratbit.org



    Дорогой пользователь! Огромная просьба, поблагодарите релизера, оцените раздачу и оставьте свои комментарий, если Вы скачали Kingsman: Золотое кольцо через торрент бесплатно! Внесите свою лепту в развитие PiratBit!
    Комментировать посты могут только пользователи прошедшие не сложную регистрацию
    Показать сообщения:    

    Kingsman: Золотое кольцо через торрент
    Скачать бесплатно Kingsman: Золотое кольцо
    Kingsman: Золотое кольцо скачать торрент
    Kingsman: Золотое кольцо смотреть онлайн
    Cкачать фильм Kingsman: Золотое кольцо бесплатно
    Kingsman: Золотое кольцо скачать торрент в хорошем качестве
    Kingsman: Золотое кольцо смотреть онлайн бесплатно в хорошем качестве


    Вы не можете начинать темы
    Вы не можете отвечать на сообщения
    Вы не можете редактировать свои сообщения
    Вы не можете удалять свои сообщения
    Вы не можете голосовать в опросах
    Вы не можете прикреплять файлы к сообщениям
    Вы можете скачивать файлы