Доктор Стрэндж

Лицензия

Добыча

MVO

Дом дракона

1 сезон

Тор

Лицензия

Мэверик

Лицензия

Там, где раки поют

MVO

Властелин колец

1 сезон

Ultimate

pack

Рекомендуем

30

Repack

ВАЖНО

ВАЖНО

Ghostwire

RePack

jed

RePack

nioh2

RePack

RDR2

RePack

NEED FOR SPEED™ PAYBACK

RePack

скачать торрент

Кинопоиск HD

Острые козырьки 6 сезон

6 сезон

FAR CRY 6

RePack

скачать торрент

Лицензия

скачать торрент

MVO

1

1 сезон

скачать торрент

1 сезон

скачать торрент

Лицензия

  

Зеленый фургон (Генрих Габай) [1959, СССР, боевик, приключения, DVDRip от AVP Studio]

Зеленый фургон через торрент piratbit.org

Размер: 745 MB | Добавлен: 4 года 9 мес. назад | Торрент скачан:23 раза
Смотреть онлайн Зеленый фургон | Скачать   

06-12-2017 08:00 Зеленый фургон Скачать торрент  

Зеленый фургон
Страна: СССР
Производство: Одесская киностудия

Жанр: боевик, приключения
Год выпуска: 1959
Продолжительность: 01:18:04

Перевод: Не требуется
Cубтитры: нет
Оригинальная аудиодорожка: русский

Режиссер: Генрих Габай

В ролях:
Владимир Колокольцев, Николай Волков (старший), Виктор Мизиненко, Дмитрий Милютенко, Юрий Тимошенко, Ольга Лысенко, Василий Векшин, Роман Филиппов, Виктор Шугаев, Константин Кульчицкий...
Об актёрах подробней

Описание:
По мотивам повести А. Козачинского.
В суровом 1920 году, после многократной смены властей, в Одессу входят части Красной Армии. Но волны войн и интервенции, отхлынув, оставили после себя мутный осадок: бандитов, налётчиков, спекулянтов и мародёров. Партия мобилизовала рабочих на борьбу с бандитизмом, на укрепление социалистического порядка в городе и на селе. У новой рабоче-крестьянской милиции не было ещё опыта в работе. Попадали в её ряды люди неопытные, даже случайные. Приходит в одесский уголовный розыск и бывший гимназист Володя Казаченко (Владимир Колокольцев), юноша из интеллигентной семьи.

Источник: DVD9 R5
Качество видео: DVDRip
Формат видео: AVI

Видео: 640x480 (4:3), 25 fps, XviD ~ 1196 kbps avg, 0.156 bit/pixel
Аудио: 48 kHz, MP3 2.0, 128 kbps

Раздача от:
Общее
Полное имя : Zelenyy.furgon.1959.DVDRip-745_[New-team]_by_AVP_Studio.avi
Формат : AVI
Формат/Информация : Audio Video Interleave
Размер файла : 745 Мбайт
Продолжительность : 1 ч. 18 м.
Общий поток : 1334 Кбит/сек
Программа кодирования : VirtualDubMod 1.5.10.3 | www.virtualdub-fr.org || (build 2550/release)
Библиотека кодирования : VirtualDubMod build 2550/release

Видео
Идентификатор : 0
Формат : MPEG-4 Visual
Профиль формата : Advanced Simple@L5
Настройки формата : BVOP1 / Custom Matrix
Параметр BVOP формата : 1
Параметр QPel формата : Нет
Параметр GMC формата : Без точки перехода
Параметр матрицы формата : Выборочная
Идентификатор кодека : XVID
Идентификатор кодека/Подсказка : XviD
Продолжительность : 1 ч. 18 м.
Битрейт : 1196 Кбит/сек
Ширина : 640 пикселей
Высота : 480 пикселей
Соотношение сторон : 4:3
Частота кадров : 25,000 кадров/сек
Цветовое пространство : YUV
Субдискретизация насыщенности : 4:2:0
Битовая глубина : 8 бит
Тип развёртки : Прогрессивная
Метод сжатия : С потерями
Бит/(Пиксели*Кадры) : 0.156
Размер потока : 668 Мбайт (90%)
Библиотека кодирования : XviD 73

Аудио
Идентификатор : 1
Формат : MPEG Audio
Версия формата : Version 1
Профиль формата : Layer 3
Идентификатор кодека : 55
Идентификатор кодека/Подсказка : MP3
Продолжительность : 1 ч. 18 м.
Вид битрейта : Постоянный
Битрейт : 128 Кбит/сек
Каналы : 2 канала
Частота : 48,0 КГц
Частота кадров : 41,667 кадра/сек (1152 SPF)
Метод сжатия : С потерями
Размер потока : 71,5 Мбайт (10%)
Выравнивание : Соединение по промежуткам
Продолжительность промежутка : 40 мс. (1,00 видеокадр)
Время предзагрузки промежутка : 504 мс.
Библиотека кодирования : LAME3.99r
Настройки программы : -m s -V 4 -q 2 -lowpass 17 -b 128



Скачать Зеленый фургон через торрент http://s019.radikal.ru/i617/1712/9b/5a79061c8a37.png Скачать, смотреть онлайн Зеленый фургон бесплантно в хорошем качестве Описание:По мотивам повести А. Козачинского.В суровом 1920 году, после многократной смены властей, в Одессу входят части Красной Армии. Но ... 10 10 1
Info! Золотая раздача, скачанное не засчитывается.
Торрент: Зарегистрирован [2017-12-06 08:00] · скачан: 23 раз
Статус: √ проверено
Размер: 745 MB
Как cкачать? Как скачать Зеленый фургон через торрент | UTorrent

% Раздел Тема Автор DL S | L
Кино СССР [ 1.09 GB ] Зеленый фургон | | DVDRip-AVC от AVP Studio AVP Studio Скачать
1 | 0
Кино СССР [ 1.09 GB ] Зеленый фургон | | DVDRip от AVP Studio AVP Studio Скачать
1 | 0

28-11-2019 20:33  

Отключить вcю реклaмy на сайте

    Дорогой пользователь! Огромная просьба, поблагодарите релизера, оцените раздачу и оставьте свои комментарий, если Вы скачали Зеленый фургон через торрент бесплатно!!
    Комментировать посты могут только пользователи прошедшие не сложную регистрацию
    Показать сообщения:    


    Зеленый фургон через торрент
    Скачать бесплатно Зеленый фургон
    Зеленый фургон скачать торрент
    Зеленый фургон смотреть онлайн
    Cкачать фильм Зеленый фургон бесплатно
    Зеленый фургон скачать торрент в хорошем качестве
    Зеленый фургон смотреть онлайн бесплатно в хорошем качестве
    Вы не можете начинать темы
    Вы не можете отвечать на сообщения
    Вы не можете редактировать свои сообщения
    Вы не можете удалять свои сообщения
    Вы не можете голосовать в опросах
    Вы не можете прикреплять файлы к сообщениям
    Вы можете скачивать файлы