Доктор Стрэндж

Лицензия

Добыча

MVO

Дом дракона

1 сезон

Тор

Лицензия

Мэверик

Лицензия

Там, где раки поют

MVO

Властелин колец

1 сезон

Ultimate

pack

Рекомендуем

30

Repack

ВАЖНО

ВАЖНО

Ghostwire

RePack

jed

RePack

nioh2

RePack

RDR2

RePack

NEED FOR SPEED™ PAYBACK

RePack

скачать торрент

Кинопоиск HD

Острые козырьки 6 сезон

6 сезон

FAR CRY 6

RePack

скачать торрент

Лицензия

скачать торрент

MVO

1

1 сезон

скачать торрент

1 сезон

скачать торрент

Лицензия

  

Город на заре (Елена Скачко, Евгений Симонов) [1959, СССР, драма, мелодрама, SATRip-AVC от AVP Studio]

Город на заре через торрент piratbit.org

Размер: 1.46 GB | Добавлен: 4 года 9 мес. назад | Торрент скачан:25 раз
Смотреть онлайн Город на заре | Скачать   

07-12-2017 08:21 Город на заре Скачать торрент  

Город на заре
Страна: СССР
Производство: Мосфильм

Жанр: драма, мелодрама
Год выпуска: 1959
Продолжительность: 02:06:26

Перевод: Не требуется
Cубтитры: нет
Оригинальная аудиодорожка: русский

Режиссер: Елена Скачко, Евгений Симонов

В ролях:
Андрей Абрикосов, Александр Граве, Михаил Ульянов, Михаил Дадыко, Вячеслав Дугин, Юрий Яковлев, Максим Греков, Владимир Колчин, Евгений Фёдоров, Юлия Борисова, Лариса Пашкова, Антонина Гунченко, Светлана Масько...
Об актёрах подробней

Описание:
Фильм-спектакль по постановке театра им.Евг.Вахтангова по одноименной пьесе Алексея Арбузова.
О первых строителях города Комсомольска, об их самоотверженном, героическом труде. Действие происходит в 1932 году. Постановка Е.Симонова.

Исходник: DVB
Качество видео: SATRip-AVC
Формат видео: MKV

Видео: 704->746х560 (4:3), 25 fps, H264 ~ 1457 kbps avg, 0.148 bit/pixel
Аудио: 48 kHz, Dolby Digital AC3 2.0, 192 kbps

Раздача от:
Общее
Полное имя : Gorod.na.zare.1959.SATRip-AVC_[New-team]_by_AVP_Studio.mkv
Формат : Matroska
Версия формата : Version 2
Размер файла : 1,46 Гбайт
Продолжительность : 2 ч. 6 м.
Общий поток : 1651 Кбит/сек
Дата кодирования : UTC 2017-12-05 13:24:07
Программа кодирования : mkvmerge v6.1.0 ('Old Devil') built on Mar 4 2013 09:10:42
Библиотека кодирования : libebml v1.3.0 + libmatroska v1.4.0

Видео
Идентификатор : 1
Формат : AVC
Формат/Информация : Advanced Video Codec
Профиль формата : High@L4.1
Настройки формата : CABAC / 10 Ref Frames
Параметр CABAC формата : Да
Параметр RefFrames формата : 10 кадров
Идентификатор кодека : V_MPEG4/ISO/AVC
Продолжительность : 2 ч. 6 м.
Битрейт : 1457 Кбит/сек
Ширина : 704 пикселя
Высота : 560 пикселей
Соотношение сторон : 4:3
Режим частоты кадров : Постоянный
Частота кадров : 25,000 кадров/сек
Цветовое пространство : YUV
Субдискретизация насыщенности : 4:2:0
Битовая глубина : 8 бит
Тип развёртки : Прогрессивная
Бит/(Пиксели*Кадры) : 0.148
Размер потока : 1,26 Гбайт (86%)
Библиотека кодирования : x264 core 130 r2273 b3065e6
Настройки программы : cabac=1 / ref=10 / deblock=1:-2:-1 / analyse=0x3:0x113 / me=umh / subme=10 / psy=1 / psy_rd=1.00:0.00 / mixed_ref=1 / me_range=32 / chroma_me=1 / trellis=2 / 8x8dct=1 / cqm=0 / deadzone=21,11 / fast_pskip=1 / chroma_qp_offset=-2 / threads=6 / lookahead_threads=1 / sliced_threads=0 / nr=0 / decimate=0 / interlaced=0 / bluray_compat=0 / constrained_intra=0 / bframes=8 / b_pyramid=2 / b_adapt=2 / b_bias=0 / direct=3 / weightb=1 / open_gop=0 / weightp=2 / keyint=250 / keyint_min=25 / scenecut=40 / intra_refresh=0 / rc=2pass / mbtree=0 / bitrate=1457 / ratetol=1.0 / qcomp=0.60 / qpmin=0 / qpmax=69 / qpstep=4 / cplxblur=20.0 / qblur=0.5 / ip_ratio=1.40 / pb_ratio=1.30 / aq=1:1.00
Default : Да
Forced : Нет

Аудио
Идентификатор : 2
Формат : AC-3
Формат/Информация : Audio Coding 3
Идентификатор кодека : A_AC3
Продолжительность : 2 ч. 6 м.
Вид битрейта : Постоянный
Битрейт : 192 Кбит/сек
Каналы : 2 канала
Расположение каналов : Front: L R
Частота : 48,0 КГц
Частота кадров : 31,250 кадров/сек (1536 SPF)
Битовая глубина : 16 бит
Метод сжатия : С потерями
Размер потока : 174 Мбайт (12%)
Default : Да
Forced : Нет



Скачать Город на заре через торрент http://s018.radikal.ru/i508/1712/f5/cade3499a6f3.png Скачать, смотреть онлайн Город на заре бесплантно в хорошем качестве Описание:Фильм-спектакль по постановке театра им.Евг.Вахтангова по одноименной пьесе Алексея Арбузова.О первых строителях города ... 5 10 1
Торрент: Зарегистрирован [2017-12-07 08:21] · скачан: 25 раз
Статус: √ проверено
Размер: 1.46 GB
Как cкачать? Как скачать Город на заре через торрент | UTorrent

% Раздел Тема Автор DL S | L
Кино СССР [ 1.46 GB ] Город на заре | | SATRip от AVP Studio AVP Studio Скачать
1 | 0

28-11-2019 20:33  

Отключить вcю реклaмy на сайте

    Дорогой пользователь! Огромная просьба, поблагодарите релизера, оцените раздачу и оставьте свои комментарий, если Вы скачали Город на заре через торрент бесплатно!!
    Комментировать посты могут только пользователи прошедшие не сложную регистрацию
    Показать сообщения:    


    Город на заре через торрент
    Скачать бесплатно Город на заре
    Город на заре скачать торрент
    Город на заре смотреть онлайн
    Cкачать фильм Город на заре бесплатно
    Город на заре скачать торрент в хорошем качестве
    Город на заре смотреть онлайн бесплатно в хорошем качестве
    Вы не можете начинать темы
    Вы не можете отвечать на сообщения
    Вы не можете редактировать свои сообщения
    Вы не можете удалять свои сообщения
    Вы не можете голосовать в опросах
    Вы не можете прикреплять файлы к сообщениям
    Вы можете скачивать файлы