Доктор Стрэндж

Лицензия

Добыча

Дубляж

Дом дракона

1 сезон

Тор

Дубляж

В эфире

Дубляж

Там, где раки поют

MVO

Властелин колец

1 сезон

Ultimate

pack

Рекомендуем

30

Пиратка

ВАЖНО

ВАЖНО

Ghostwire

Пиратка

jed

RePack

nioh2

RePack

RDR2

RePack

NEED FOR SPEED™ PAYBACK

RePack

скачать торрент

Кинопоиск HD

Острые козырьки 6 сезон

6 сезон

FAR CRY 6

RePack

скачать торрент

Лицензия

скачать торрент

MVO

1

1 сезон

скачать торрент

1 сезон

скачать торрент

Лицензия

  

Хороший сосед / The Good Neighbor (Касра Фарахани) [2016 г., Триллер, драма, криминал, BDRip 1080p][VO] (Петр Титов)

Хороший сосед через торрент piratbit.org

Размер: 5.47 GB | Добавлен: 4 года 11 мес. назад | Торрент скачан:94 раза
Смотреть онлайн | Скачать   

08-12-2017 11:33 Хороший сосед Скачать торрент  

Хороший сосед / The Good Neighbor

Год выпуска: 2016
Страна: США
Жанр: Триллер, драма, криминал
Продолжительность: 01:37:17
Перевод: Любительский (одноголосый)(Петр Титов)
Субтитры: нет

Режиссер: Касра Фарахани



В ролях: Джеймс Каан, Логан Миллер, Кейр Гилкрист, Лора Иннес, Эдвин Ходж

Описание: Группа старшеклассников решила поразвлечься. Но они придумали жестокий способ заставить своего соседа поверить в то, что в доме обитают призраки. Однако, их предполагаемая жертва отреагировала на происходящие события не так, как планировалось изначально.

Качество: BDRip 1080p
Формат: MKV
Видео кодек: AVC
Аудио кодек: AC3
Видео: AVC at 6352 Кбит/сек Aspect: 1920 x 768 (2.500) at 23.976 fps
Аудио#1: AC-3 at 192 Кбит/сек Infos: 2 канала, 48,0 КГц / Любительский одноголосый (Петр Титов)
Аудио#2: DTS at 1509 Кбит/сек Infos: 6 каналов, 48,0 КГц / Английский
Семпл
Общее
Уникальный идентификатор : 228377446859370497491668662728917480167 (0xABCFE577627E9D4E89220ED37B1772E7)
Полное имя : D:\PiratBit\Horoshiy.sosed.2016.BDRip.1080p.MediaClub.mkv
Формат : Matroska
Версия формата : Version 4 / Version 2
Размер файла : 5,47 Гбайт
Продолжительность : 1 ч. 37 м.
Общий поток : 8050 Кбит/сек
Дата кодирования : UTC 2017-12-01 20:41:21 / UTC 2017-11-23T17:43:55Z
Программа кодирования : mkvmerge v17.0.0 ('Be Ur Friend') 64-bit
Библиотека кодирования : libebml v1.3.5 + libmatroska v1.4.8 / Lavf57.7.2

Видео
Идентификатор : 1
Формат : AVC
Формат/Информация : Advanced Video Codec
Профиль формата : High@L4.1
Настройки формата : CABAC / 5 Ref Frames
Параметр CABAC формата : Да
Параметр RefFrames формата : 5 кадров
Идентификатор кодека : V_MPEG4/ISO/AVC
Продолжительность : 1 ч. 37 м.
Битрейт : 6352 Кбит/сек
Ширина : 1920 пикселей
Высота : 768 пикселей
Соотношение сторон : 2,500
Режим частоты кадров : Постоянный
Частота кадров : 23,976 (24000/1001) кадра/сек
Цветовое пространство : YUV
Субдискретизация насыщенности : 4:2:0
Битовая глубина : 8 бит
Тип развёртки : Прогрессивная
Бит/(Пиксели*Кадры) : 0.180
Размер потока : 4,21 Гбайт (77%)
Заголовок : BDRip by Silverok
Библиотека кодирования : x264 core 148 r2708 86b7198
Настройки программы : cabac=1 / ref=5 / deblock=1:-3:-3 / analyse=0x3:0x113 / me=umh / subme=11 / psy=1 / psy_rd=1.00:0.00 / mixed_ref=1 / me_range=32 / chroma_me=1 / trellis=2 / 8x8dct=1 / cqm=0 / deadzone=21,11 / fast_pskip=1 / chroma_qp_offset=-2 / threads=12 / lookahead_threads=1 / sliced_threads=0 / nr=0 / decimate=0 / interlaced=0 / bluray_compat=0 / constrained_intra=0 / bframes=16 / b_pyramid=2 / b_adapt=1 / b_bias=0 / direct=1 / weightb=1 / open_gop=0 / weightp=2 / keyint=240 / keyint_min=24 / scenecut=40 / intra_refresh=0 / rc_lookahead=40 / rc=2pass / mbtree=1 / bitrate=6352 / ratetol=1.0 / qcomp=0.60 / qpmin=0 / qpmax=69 / qpstep=4 / cplxblur=20.0 / qblur=0.5 / vbv_maxrate=62500 / vbv_bufsize=78125 / nal_hrd=none / filler=0 / ip_ratio=1.40 / aq=1:1.00
Default : Да
Forced : Нет
Цветовой диапазон : Limited
Основные цвета : BT.709
Характеристики трансфера : BT.709
Коэффициенты матрицы : BT.709
Statistics Tags Issue : mkvmerge v17.0.0 ('Be Ur Friend') 64-bit 2017-12-01 20:41:21 / mkvmerge v17.0.0 ('Be Ur Friend') 64-bit 2017-12-01 20:41:21 / UTC 2017-11-23T17:43:55Z
FromStats_BitRate : 6345950
FromStats_Duration : 01:37:17.499000000
FromStats_FrameCount : 139959
FromStats_StreamSize : 4630560013

Аудио #1
Идентификатор : 2
Формат : AC-3
Формат/Информация : Audio Coding 3
Идентификатор кодека : A_AC3
Продолжительность : 1 ч. 37 м.
Вид битрейта : Постоянный
Битрейт : 192 Кбит/сек
Каналы : 2 канала
Расположение каналов : Front: L R
Частота : 48,0 КГц
Частота кадров : 31,250 кадров/сек (1536 SPF)
Битовая глубина : 16 бит
Метод сжатия : С потерями
Размер потока : 134 Мбайт (2%)
Заголовок : Одноголосный закадровый (Петр Титов)
Язык : Russian
ServiceKind/String : Complete Main
Default : Да
Forced : Нет
Statistics Tags Issue : mkvmerge v17.0.0 ('Be Ur Friend') 64-bit 2017-12-01 20:41:21 / mkvmerge v17.0.0 ('Be Ur Friend') 64-bit 2017-12-01 20:41:21 / UTC 2017-11-23T17:43:55Z
FromStats_BitRate : 192000
FromStats_Duration : 01:37:17.504000000
FromStats_FrameCount : 182422
FromStats_StreamSize : 140100096

Аудио #2
Идентификатор : 3
Формат : DTS
Формат/Информация : Digital Theater Systems
Идентификатор кодека : A_DTS
Продолжительность : 1 ч. 37 м.
Вид битрейта : Постоянный
Битрейт : 1509 Кбит/сек
Каналы : 6 каналов
Расположение каналов : Front: L C R, Side: L R, LFE
Частота : 48,0 КГц
Частота кадров : 93,750 кадра/сек (512 SPF)
Битовая глубина : 16 бит
Метод сжатия : С потерями
Размер потока : 1,03 Гбайт (19%)
Язык : English
Default : Нет
Forced : Нет
Statistics Tags Issue : mkvmerge v17.0.0 ('Be Ur Friend') 64-bit 2017-12-01 20:41:21 / mkvmerge v17.0.0 ('Be Ur Friend') 64-bit 2017-12-01 20:41:21 / UTC 2017-11-23T17:43:55Z
FromStats_BitRate : 1508999
FromStats_Duration : 01:37:17.494000000
FromStats_FrameCount : 547265
FromStats_StreamSize : 1101097180

Меню
00:00:00.000 : :Chapter 1
00:05:58.650 : :Chapter 2
00:14:31.704 : :Chapter 3
00:22:21.423 : :Chapter 4
00:26:02.728 : :Chapter 5
00:32:53.346 : :Chapter 6
00:41:43.042 : :Chapter 7
00:48:32.451 : :Chapter 8
00:54:06.785 : :Chapter 9
01:00:57.779 : :Chapter 10
01:06:21.186 : :Chapter 11
01:10:04.867 : :Chapter 12




Скачать Хороший сосед через торрент http://s019.radikal.ru/i627/1712/f8/1a8355d2464c.jpg Скачать, смотреть онлайн Хороший сосед бесплантно в хорошем качестве Описание: Группа старшеклассников решила поразвлечься. Но они придумали жестокий способ заставить своего соседа поверить в то, что в доме ... 10 10 3
Торрент: Зарегистрирован [2017-12-08 11:33] · скачан: 94 раз
Статус: √ проверено
Размер: 5.47 GB
Как cкачать? Как скачать Хороший сосед через торрент | UTorrent

% Раздел Тема Автор DL S | L
T Фильмы 2016 (Звук TS, Cam, VO, DVO) [ 1.51 GB ] Хороший сосед / The Good Neighbor | | HDRip killermax2013 Скачать
1 | 0

28-11-2019 20:33  


Отключить вcю реклaмy на сайте, в т.ч. и в плеере онлайн просмотра!

08-12-2017 12:55 Хороший сосед Скачать торрент  

Топик был перенесен из форума Фильмы 2016 (Звук TS, Cam, VO, DVO) в форум Фильмы [HD 720p, 1080p] (Звук Cam, VO, DVO)


koenig



14-12-2017 20:00 Хороший сосед Скачать торрент  

Звук капец.



    Дорогой пользователь! Огромная просьба, поблагодарите релизера, оцените раздачу и оставьте свои комментарий, если Вы скачали Хороший сосед через торрент бесплатно!!
    Комментировать посты могут только пользователи прошедшие не сложную регистрацию
    Показать сообщения:    


    Хороший сосед через торрент
    Скачать бесплатно Хороший сосед
    Хороший сосед скачать торрент
    Хороший сосед смотреть онлайн
    Cкачать фильм Хороший сосед бесплатно
    Хороший сосед скачать торрент в хорошем качестве
    Хороший сосед смотреть онлайн бесплатно в хорошем качестве
    Вы не можете начинать темы
    Вы не можете отвечать на сообщения
    Вы не можете редактировать свои сообщения
    Вы не можете удалять свои сообщения
    Вы не можете голосовать в опросах
    Вы не можете прикреплять файлы к сообщениям
    Вы можете скачивать файлы
    Хороший сосед / The Good Neighbor [2016 г., Триллер, драма, криминал, BDRip 1080p][VO] смотреть онлайн, скачать торрент picoco.icu