Доктор Стрэндж

Лицензия

Добыча

MVO

Дом дракона

1 сезон

Тор

Лицензия

Мэверик

Лицензия

Там, где раки поют

MVO

Властелин колец

1 сезон

Ultimate

pack

Рекомендуем

30

Repack

ВАЖНО

ВАЖНО

Ghostwire

RePack

jed

RePack

nioh2

RePack

RDR2

RePack

NEED FOR SPEED™ PAYBACK

RePack

скачать торрент

Кинопоиск HD

Острые козырьки 6 сезон

6 сезон

FAR CRY 6

RePack

скачать торрент

Лицензия

скачать торрент

MVO

1

1 сезон

скачать торрент

1 сезон

скачать торрент

Лицензия

  

Горячая душа (Василий Векшин) [1959, СССР, драма, SATRip от AVP Studio]

Горячая душа через торрент piratbit.org

Размер: 1.09 GB | Добавлен: 4 года 9 мес. назад | Торрент скачан:40 раз
Смотреть онлайн Горячая душа | Скачать   

11-12-2017 07:26 Горячая душа Скачать торрент  

Горячая душа
Страна: СССР
Производство: Ленфильм

Жанр: драма
Год выпуска: 1959
Продолжительность: 01:23:41

Перевод: Не требуется
Cубтитры: нет
Оригинальная аудиодорожка: русский

Режиссер: Василий Векшин

В ролях:
Василий Векшин, Светлана Данильченко, Василий Меркурьев, Валентин Архипенко, Николай Емельянов, Олег Басилашвили, Алина Немченко, Михаил Петров, Игорь Владимиров, Николай Михайлов (II), В. Бобров, Олег Хроменков, Алексей Смирнов...
Об актёрах подробней

Описание:
Молодой сталевар Федор Шебалин ставит перед начальством вопросы по организации производства и выдвигает ряд предложений. Наивному парню приказывают работать, как положено. Парень не сдается, привлекает к своим экспериментам молодежь завода. Молодые сталевары решают провести опытную плавку самостоятельно. По недосмотру подручного металл преждевременно хлынул из печи.

Исходник: DVB
Качество видео: SATRip
Формат видео: AVI

Видео: 704х528 (4:3), 25 fps, XviD ~ 1662 kbps avg, 0.179 bit/pixel
Аудио: 48 kHz, Dolby Digital AC3 2.0, 192 kbps

Раздача от:
Общее
Полное имя : Goryachaya.dusha.1959.SATRip_[New-team]_by_AVP_Studio.avi
Формат : AVI
Формат/Информация : Audio Video Interleave
Размер файла : 1,09 Гбайт
Продолжительность : 1 ч. 23 м.
Общий поток : 1864 Кбит/сек
Программа кодирования : VirtualDubMod 1.5.10.3 | www.virtualdub-fr.org || (build 2550/release)
Библиотека кодирования : VirtualDubMod build 2550/release

Видео
Идентификатор : 0
Формат : MPEG-4 Visual
Профиль формата : Advanced Simple@L5
Настройки формата : BVOP1 / Custom Matrix
Параметр BVOP формата : 1
Параметр QPel формата : Нет
Параметр GMC формата : Без точки перехода
Параметр матрицы формата : Выборочная
Идентификатор кодека : XVID
Идентификатор кодека/Подсказка : XviD
Продолжительность : 1 ч. 23 м.
Битрейт : 1662 Кбит/сек
Ширина : 704 пикселя
Высота : 528 пикселей
Соотношение сторон : 4:3
Частота кадров : 25,000 кадров/сек
Цветовое пространство : YUV
Субдискретизация насыщенности : 4:2:0
Битовая глубина : 8 бит
Тип развёртки : Прогрессивная
Метод сжатия : С потерями
Бит/(Пиксели*Кадры) : 0.179
Размер потока : 995 Мбайт (89%)
Библиотека кодирования : XviD 73

Аудио
Идентификатор : 1
Формат : AC-3
Формат/Информация : Audio Coding 3
Идентификатор кодека : 2000
Продолжительность : 1 ч. 23 м.
Вид битрейта : Постоянный
Битрейт : 192 Кбит/сек
Каналы : 2 канала
Расположение каналов : Front: L R
Частота : 48,0 КГц
Частота кадров : 31,250 кадров/сек (1536 SPF)
Битовая глубина : 16 бит
Метод сжатия : С потерями
Размер потока : 115 Мбайт (10%)
Выравнивание : Разделение по промежуткам
Продолжительность промежутка : 40 мс. (1,00 видеокадр)
Время предзагрузки промежутка : 500 мс



Скачать Горячая душа через торрент http://s012.radikal.ru/i319/1712/41/4866de5a0c26.png Скачать, смотреть онлайн Горячая душа бесплантно в хорошем качестве Описание:Молодой сталевар Федор Шебалин ставит перед начальством вопросы по организации производства и выдвигает ряд предложений. Наивному ... 5 10 1
Info! Золотая раздача, скачанное не засчитывается.
Торрент: Зарегистрирован [2017-12-11 07:26] · скачан: 40 раз
Статус: √ проверено
Размер: 1.09 GB
Как cкачать? Как скачать Горячая душа через торрент | UTorrent

% Раздел Тема Автор DL S | L
Кино СССР [ 1.09 GB ] Горячая душа | | SATRip-AVC от AVP Studio AVP Studio Скачать
1 | 0
Кино СССР [ 745 MB ] Горячая душа | | SATRip от AVP Studio AVP Studio Скачать
1 | 0

28-11-2019 20:33  

Отключить вcю реклaмy на сайте

    Дорогой пользователь! Огромная просьба, поблагодарите релизера, оцените раздачу и оставьте свои комментарий, если Вы скачали Горячая душа через торрент бесплатно!!
    Комментировать посты могут только пользователи прошедшие не сложную регистрацию
    Показать сообщения:    


    Горячая душа через торрент
    Скачать бесплатно Горячая душа
    Горячая душа скачать торрент
    Горячая душа смотреть онлайн
    Cкачать фильм Горячая душа бесплатно
    Горячая душа скачать торрент в хорошем качестве
    Горячая душа смотреть онлайн бесплатно в хорошем качестве
    Вы не можете начинать темы
    Вы не можете отвечать на сообщения
    Вы не можете редактировать свои сообщения
    Вы не можете удалять свои сообщения
    Вы не можете голосовать в опросах
    Вы не можете прикреплять файлы к сообщениям
    Вы можете скачивать файлы