Достать ножи: Стеклянная луковица

MVO

Добыча

Дубляж

Уэнсдэй

1 сезон

Тор

Дубляж

13 клиническая

1 сезон

Жестокая ночь

MVO

Одни из нас

1 сезон

Deluxe

pack

Рекомендуем

30

Пиратка

ВАЖНО

ВАЖНО

Ghostwire

Пиратка

jed

RePack

nioh2

RePack

RDR2

RePack

NEED FOR SPEED™ PAYBACK

RePack

скачать торрент

Кинопоиск HD

Острые козырьки 6 сезон

6 сезон

FAR CRY 6

RePack

скачать торрент

Лицензия

скачать торрент

MVO

1

1 сезон

скачать торрент

1 сезон

скачать торрент

Лицензия

  

Очень странные дела / Stranger Things / Сезон 2 / Серии 1-9 из 9 (Мэтт Даффер, Росс Даффер, Шон Леви) [2017, ужасы, триллер, драма, UHD WEBRip 2160p] MVO [Good People, LostFilm]

Очень странные дела через торрент piratbit.org

Размер: 130.37 GB | Добавлен: 5 лет 1 мес. назад | Торрент скачан:97 раз
Смотреть онлайн | Скачать | Поддержите нас   

13-12-2017 17:49 Очень странные дела Скачать торрент  

Очень странные дела / Stranger ThingsИнформация Описание:

Название: Очень странные дела
Оригинальное название: Stranger Things
Год выпуска: 2017
Страна: США
Жанр: ужасы, триллер, драма
Продолжительность: ~ 00:48:00 серия
Перевод: Профессиональный (многоголосый)- Good People, LostFilm
Субтитры: | английские |
✦ Без рекламы

Режиссер: Мэтт Даффер, Росс Даффер, Шон Леви

rating

В ролях:

Вайнона Райдер, Дэвид Харбор, Кара Буоно, Милли Бобби Браун, Наталия Дайер, Чарли Хитон, Калеб МакЛафлин, Ной Шнапп и др.

Описание:

Главное действие нового телевизионного сериала разворачивается в 80-х годах на территории тихого провинциального города. Благоприятное течение местной жизни нарушает загадочное исчезновение подростка по имени Уилл. Выяснить обстоятельства дела, полны решимости родные мальчика и местный шериф. Также события затрагивают лучшего друга Уилла – Майка. Он начинает собственное расследование, в процессе которого встречает группу людей со сверхспособностями. Теперь Майк уверен, что близок к разгадке, однако для этого ему предстоит оказаться в эпицентре ожесточенной битвы потусторонних сил.

Информация о файле:

Качество: UHD WEBRip 2160p
Формат: MKV
Видео кодек: H.264
Аудио кодек: AC3

Видео: ~ 38300 kbps | 3840x1920 (2:1)
Аудио#1: RUS: AC3 | 48.0 KHz | 6 ch | 384 kbps | Good People |
Аудио#2: RUS: AC3 | 48.0 KHz | 6 ch | 384 kbps | LostFilm |
Аудио#3: ENG: AC3 | 48.0 KHz | 6 ch | 384 kbps | Original |


Дорожка #1 получена наложением чистых голосов от «Good People» (за войсы спасибо студии) на центр оригинального AC3.
Дорожка #2 получена наложением выделенных голосов от «LostFilm» на центр оригинального AC3.

Good People 1ый вариант озвучки с повзрослевшими голосами.

скриншот  скриншот  скриншот  скриншот  скриншот  скриншот  

General
Unique ID : 254881530128124862998492504068293051608 (0xBFC065A94BBB4D74B2E72A49E3A2C4D8)
Complete name : D:\Фильмы\Stranger.Things.S02.WEBRip.2160p.Rus.Eng\Stranger.Things.S02E01.WEBRip.2160p.Rus.Eng.mkv
Format : Matroska
Format version : Version 4 / Version 2
File size : 13.06 GiB
Duration : 47 min 49 s
Overall bit rate : 39.0 Mbps
Encoded date : UTC 2017-11-05 10:59:49
Writing application : mkvmerge v6.1.0 ('Old Devil') built on Mar 4 2013 09:10:42
Writing library : libebml v1.3.0 + libmatroska v1.4.0

Video
ID : 1
Format : AVC
Format/Info : Advanced Video Codec
Format profile : High@L5.1
Format settings, CABAC : Yes
Format settings, ReFrames : 6 frames
Codec ID : V_MPEG4/ISO/AVC
Duration : 47 min 49 s
Bit rate : 38.3 Mb/s
Width : 3 840 pixels
Height : 1 920 pixels
Display aspect ratio : 2.000
Frame rate mode : Constant
Frame rate : 23.976 (24000/1001) FPS
Color space : YUV
Chroma subsampling : 4:2:0
Bit depth : 8 bits
Scan type : Progressive
Bits/(Pixel*Frame) : 0.217
Stream size : 12.8 GiB (99%)
Writing library : x264 core 152 r2851kMod ba24899
Encoding settings : cabac=1 / ref=6 / deblock=1:-3:-3 / analyse=0x3:0x133 / me=umh / subme=10 / psy=1 / fade_compensate=0.00 / psy_rd=1.00:0.00 / mixed_ref=1 / me_range=48 / chroma_me=1 / trellis=2 / 8x8dct=1 / cqm=0 / deadzone=21,11 / fast_pskip=0 / chroma_qp_offset=-2 / threads=48 / lookahead_threads=8 / sliced_threads=0 / nr=0 / decimate=0 / interlaced=0 / bluray_compat=0 / constrained_intra=0 / bframes=8 / b_pyramid=2 / b_adapt=2 / b_bias=0 / direct=3 / weightb=1 / open_gop=0 / weightp=2 / keyint=250 / keyint_min=23 / scenecut=40 / intra_refresh=0 / rc=crf / mbtree=0 / crf=19.0000 / qcomp=0.60 / qpmin=0 / qpmax=69 / qpstep=4 / ip_ratio=1.30 / pb_ratio=1.20 / aq=3:0.80
Language : English
Default : Yes
Forced : No

Audio #1
ID : 2
Format : AC-3
Format/Info : Audio Coding 3
Format settings, Endianness : Big
Codec ID : A_AC3
Duration : 47 min 49 s
Bit rate mode : Constant
Bit rate : 384 kb/s
Channel(s) : 6 channels
Channel positions : Front: L C R, Side: L R, LFE
Sampling rate : 48.0 kHz
Frame rate : 31.250 FPS (1536 spf)
Bit depth : 16 bits
Compression mode : Lossy
Stream size : 131 MiB (1%)
Language : Russian
Service kind : Complete Main
Default : Yes
Forced : No

Audio #2
ID : 2
Format : AC-3
Format/Info : Audio Coding 3
Format settings, Endianness : Big
Codec ID : A_AC3
Duration : 47 min 49 s
Bit rate mode : Constant
Bit rate : 384 kb/s
Channel(s) : 6 channels
Channel positions : Front: L C R, Side: L R, LFE
Sampling rate : 48.0 kHz
Frame rate : 31.250 FPS (1536 spf)
Bit depth : 16 bits
Compression mode : Lossy
Stream size : 131 MiB (1%)
Language : English
Service kind : Complete Main
Default : No
Forced : No

Text #1
ID : 3
Format : UTF-8
Codec ID : S_TEXT/UTF8
Codec ID/Info : UTF-8 Plain Text
Duration : 44 min 39 s
Bit rate : 61 b/s
Count of elements : 579
Stream size : 20.3 KiB (0%)
Title : SDH
Language : English
Default : No
Forced : No




Скачать Очень странные дела через торрент http://s019.radikal.ru/i626/1712/09/a796d3bfb622.png Скачать, смотреть онлайн Очень странные дела бесплантно в хорошем качестве Описание:✦ Название: Очень странные дела✦ Оригинальное название: Stranger Things✦ Год выпуска: 2017✦ Страна: США✦ Жанр: ужасы, триллер, ... 10 10 4
Info! Золотая раздача, скачанное не засчитывается.
Торрент: Зарегистрирован [2017-12-13 17:49] · скачан: 97 раз
Статус: √ проверено
Размер: 130.37 GB
Как cкачать? Как скачать Очень странные дела через торрент | UTorrent

% Раздел Тема Автор DL S | L
Зарубежные сериалы [ 12.27 GB ] Очень странные дела / Stranger Things / Сезон: 3 / Серии: 1-8 из 8 | Пифагор | 720p killermax2013 Скачать
2 | 0
Зарубежные сериалы [ 56.51 GB ] Очень странные дела / Загадочные события / Stranger Things / Сезон: 4 / Серии: 1-9 из 9 | MVO | 1080p bober100 Скачать
5 | 0
Зарубежные сериалы [ 41.85 GB ] Очень странные дела / Загадочные события / Stranger Things / Сезон: 4 / Серии: 1-9 из 9 | NewStudio | 1080p bober100 Скачать
2 | 1
Фильмы без перевода [ 36.32 GB ] Очень странные дела / Загадочные события / Stranger Things / Сезон: 4 / Серии: 1-9 из 9 | WEB-DL 1080p | 1080p bober100 Скачать
1 | 0
Зарубежные сериалы [ 8.55 GB ] Очень странные дела / Загадочные события / Stranger Things / Сезон: 4 / Серии: 1-7 из 9 | HDRezka Studio | DLRip-AVC bober100 Скачать
1 | 0
T Зарубежные сериалы [ 10.28 GB ] Очень странные дела / Загадочные события / Stranger Things / Сезон: 4 / Серии: 1-9 из 9 | Ultradox | DLRip bober100 Скачать
5 | 1
Зарубежные сериалы [ 21.98 GB ] Очень странные дела / Stranger Things / Сезон: 2 / Серии: 1-9 из 9 | DUB + 2xMVO | 1080p RealOldGamer Скачать
1 | 0

28-11-2019 20:33  


Отключить вcю реклaмy на сайте, в т.ч. и в плеере онлайн просмотра!

    Дорогой пользователь! Огромная просьба, поблагодарите релизера, оцените раздачу и оставьте свои комментарий, если Вы скачали Очень странные дела через торрент бесплатно!!
    Комментировать посты могут только пользователи прошедшие не сложную регистрацию
    Показать сообщения:    


    Очень странные дела через торрент
    Скачать бесплатно Очень странные дела
    Очень странные дела скачать торрент
    Очень странные дела смотреть онлайн
    Cкачать фильм Очень странные дела бесплатно
    Очень странные дела скачать торрент в хорошем качестве
    Очень странные дела смотреть онлайн бесплатно в хорошем качестве
    Вы не можете начинать темы
    Вы не можете отвечать на сообщения
    Вы не можете редактировать свои сообщения
    Вы не можете удалять свои сообщения
    Вы не можете голосовать в опросах
    Вы не можете прикреплять файлы к сообщениям
    Вы можете скачивать файлы
    Очень странные дела / Stranger Things / Сезон 2 / Серии 1-9 из 9 [2017, ужасы, триллер, драма, UHD WEBRip 2160p] MVO [Good People, LostFilm] смотреть онлайн, скачать торрент picoco.icu