Достать ножи: Стеклянная луковица

MVO

Добыча

Дубляж

Уэнсдэй

1 сезон

Тор

Дубляж

13 клиническая

1 сезон

Жестокая ночь

MVO

Одни из нас

1 сезон

Deluxe

pack

Рекомендуем

30

Пиратка

ВАЖНО

ВАЖНО

Ghostwire

Пиратка

jed

RePack

nioh2

RePack

RDR2

RePack

NEED FOR SPEED™ PAYBACK

RePack

скачать торрент

Кинопоиск HD

Острые козырьки 6 сезон

6 сезон

FAR CRY 6

RePack

скачать торрент

Лицензия

скачать торрент

MVO

1

1 сезон

скачать торрент

1 сезон

скачать торрент

Лицензия

  

Форсаж 6 / Fast & Furious 6 (Джастин Лин) [2013, Боевик, драма, криминал, триллер, UHD BDRemux 2160p] [Расширенная версия] Дубляж [Лицензия] +3xAVO

Форсаж 6 через торрент piratbit.org

Размер: 55.67 GB | Добавлен: 3 года 3 мес. назад | Торрент скачан:23 раза
Смотреть онлайн | Скачать | Поддержите нас   

15-12-2017 17:33 Форсаж 6 Скачать торрент  

Форсаж 6 / Fast & Furious 6
Год выпуска: 2013
Страна: США
Жанр: Боевик, драма, криминал, триллер
Продолжительность: 02:11:03
Перевод:Дублированный | Лицензия, Авторский
Субтитры: Русские (forced, full), английские (full, SDH, Commentary)

Режиссер: Джастин Лин

rating

В ролях: Вин Дизель, Дуэйн Джонсон, Пол Уокер, Мишель Родригес, Люк Эванс, Джина Карано, Эльза Патаки, Джордана Брюстер, Санг Кенг, Галь Гадот, Тайриз Гибсон, Лудакрис, Джо Таслим, Алистер МакНаб, Дэнис Хорошко, Марк Бэдхэм, Бао Тию, Леон Корбин, Виктор Гарднер, Клара Пэджет, Пойнтон, Сьёнг Лун Чун, Джеймс Хэа, Глен Стэнуэй, Льюис Джеймс, Джоаккино Джим Куффаро, Алекс Мартин, Дэвид Аджала, Стивен Маркус

Описание: После того, как Доминик и Брайан были в Рио и ограбили, и свергли империю вора в законе, и их команда получила 100 миллионов, наши герои оказались разбросаны по всему миру. Но их не способность вернуться домой и вечно жить в бегах, сделала их жизнь неполной. Между тем, Хоббс отслеживал организацию смертельно опасных наемников-водителей по двенадцати странам, чьим вдохновителем и вторым-в-команде стала любовь Дома, которую считали мертвой, Летти. Единственный способ остановить криминальный наряд, это превосходить их на улицах, поэтому Хоббс спрашивает Дома, сможет ли собраться его элитная команда в Лондоне. Оплата? Полное помилование для всех, чтобы они смогли вернуться домой к своей семье.

Качество: UHD BDRemux 2160p | Расширенная версия
Формат: MKV

Видео: MPEG-H HEVC Video / 42960 kbps / 3840x2160 / 23.976 fps / 16:9 / Main 10 Profile 5.1 High / 4:2:0 / 10 bits / HDR10 / BT.2020 /
Аудио 1: Russian DTS / 5.1 / 48 kHz / 768 kbps / 24-bit |Дубляж, Blu-Ray|
Аудио 2: Russian DTS-HD Master Audio / 5.1 / 48 kHz / 4242 kbps / 24-bit (DTS Core: 5.1 / 48 kHz / 1509 kbps / 24-bit) |Ю. Живов|
Аудио 3: Russian DTS-HD Master Audio / 5.1 / 48 kHz / 4219 kbps / 24-bit (DTS Core: 5.1 / 48 kHz / 1509 kbps / 24-bit) |Л. Володарский|
Аудио 4: Russian DTS-HD Master Audio / 5.1 / 48 kHz / 4217 kbps / 24 bits (DTS Core: 5.1 / 48 kHz / 1509 kbps / 24 bits) |Д. Есарев|
Аудио 5: English DTS-HD Master Audio / 5.1 / 48 kHz / 4210 kbps / 24-bit (DTS Core: 5.1 / 48 kHz / 1509 kbps / 24-bit) |original|
Аудио 6: English AC3 / 2.0 / 48 kHz / 192 kbps |Commentary by director Justin Lin|
скриншот  скриншот  скриншот  скриншот  скриншот  

скриншот  скриншот  скриншот  скриншот  скриншот  

Общее
Уникальный идентификатор : 1358993836645400953437265654461440771 (0x105BB91BB0C21CA0CE6050C48EB2303)
Полное имя : H:\UHD\Форсаж 6.2013.Extended.Cut.UHD.Blu-Ray.Remux.2160p.mkv
Формат : Matroska
Версия формата : Version 4
Размер файла : 55,7 Гбайт
Продолжительность : 2 ч. 11 м.
Режим общего битрейта : Переменный
Общий поток : 60,8 Мбит/сек
Дата кодирования : UTC 2019-10-15 18:13:10
Программа кодирования : mkvmerge v38.0.0 ('The Silent Type') 64-bit
Библиотека кодирования : libebml v1.3.9 + libmatroska v1.5.2
Attachments : poster.jpg

Видео
Идентификатор : 1
Формат : HEVC
Формат/Информация : High Efficiency Video Coding
Профиль формата : Main 10@L5.1@High
HDR_Format/String : SMPTE ST 2086, HDR10 compatible
Идентификатор кодека : V_MPEGH/ISO/HEVC
Продолжительность : 2 ч. 11 м.
Битрейт : 43,0 Мбит/сек
Ширина : 3840 пикселей
Высота : 2160 пикселей
Соотношение сторон : 16:9
Режим частоты кадров : Постоянный
Частота кадров : 23,976 (24000/1001) кадра/сек
Цветовое пространство : YUV
Субдискретизация насыщенности : 4:2:0 (Type 2)
Битовая глубина : 10 бит
Бит/(Пиксели*Кадры) : 0.216
Размер потока : 39,3 Гбайт (71%)
Библиотека кодирования : ATEME Titan File 3.7.8 (4.7.8.0)
Default : Да
Forced : Нет
Цветовой диапазон : Limited
Основные цвета : BT.2020
Характеристики трансфера : PQ
Коэффициенты матрицы : BT.2020 non-constant
MasteringDisplay_ColorPrimaries : Display P3
MasteringDisplay_Luminance : min: 0.0050 cd/m2, max: 1000 cd/m2
MaxCLL : 1000 cd/m2
MaxFALL : 252 cd/m2

Аудио #1
Идентификатор : 2
Формат : DTS
Формат/Информация : Digital Theater Systems
Идентификатор кодека : A_DTS
Продолжительность : 2 ч. 11 м.
Вид битрейта : Постоянный
Битрейт : 768 Кбит/сек
Каналы : 6 каналов
ChannelLayout : C L R Ls Rs LFE
Частота : 48,0 КГц
Частота кадров : 93,750 кадра/сек (512 SPF)
Битовая глубина : 24 бит
Метод сжатия : С потерями
Размер потока : 720 Мбайт (1%)
Заголовок : Дубляж, Blu-Ray
Язык : Russian
Default : Да
Forced : Нет

Аудио #2
Идентификатор : 3
Формат : DTS XLL
Формат/Информация : Digital Theater Systems
Коммерческое название : DTS-HD Master Audio
Идентификатор кодека : A_DTS
Продолжительность : 2 ч. 11 м.
Вид битрейта : Переменный
Битрейт : 4242 Кбит/сек
Каналы : 6 каналов
ChannelLayout : C L R Ls Rs LFE
Частота : 48,0 КГц
Частота кадров : 93,750 кадра/сек (512 SPF)
Битовая глубина : 24 бит
Метод сжатия : Без потерь
Размер потока : 3,88 Гбайт (7%)
Заголовок : Ю. Живов
Язык : Russian
Default : Нет
Forced : Нет

Аудио #3
Идентификатор : 4
Формат : DTS XLL
Формат/Информация : Digital Theater Systems
Коммерческое название : DTS-HD Master Audio
Идентификатор кодека : A_DTS
Продолжительность : 2 ч. 11 м.
Вид битрейта : Переменный
Битрейт : 4219 Кбит/сек
Каналы : 6 каналов
ChannelLayout : C L R Ls Rs LFE
Частота : 48,0 КГц
Частота кадров : 93,750 кадра/сек (512 SPF)
Битовая глубина : 24 бит
Метод сжатия : Без потерь
Размер потока : 3,86 Гбайт (7%)
Заголовок : Л. Володарский
Язык : Russian
Default : Нет
Forced : Нет

Аудио #4
Идентификатор : 5
Формат : DTS XLL
Формат/Информация : Digital Theater Systems
Коммерческое название : DTS-HD Master Audio
Идентификатор кодека : A_DTS
Продолжительность : 2 ч. 11 м.
Вид битрейта : Переменный
Битрейт : 4217 Кбит/сек
Каналы : 6 каналов
ChannelLayout : C L R Ls Rs LFE
Частота : 48,0 КГц
Частота кадров : 93,750 кадра/сек (512 SPF)
Битовая глубина : 24 бит
Метод сжатия : Без потерь
Размер потока : 3,86 Гбайт (7%)
Заголовок : Д. Есарев
Язык : Russian
Default : Нет
Forced : Нет

Аудио #5
Идентификатор : 6
Формат : DTS XLL
Формат/Информация : Digital Theater Systems
Коммерческое название : DTS-HD Master Audio
Идентификатор кодека : A_DTS
Продолжительность : 2 ч. 11 м.
Вид битрейта : Переменный
Битрейт : 4210 Кбит/сек
Каналы : 6 каналов
ChannelLayout : C L R Ls Rs LFE
Частота : 48,0 КГц
Частота кадров : 93,750 кадра/сек (512 SPF)
Битовая глубина : 24 бит
Метод сжатия : Без потерь
Размер потока : 3,85 Гбайт (7%)
Язык : English
Default : Нет
Forced : Нет

Аудио #6
Идентификатор : 7
Формат : AC-3
Формат/Информация : Audio Coding 3
Коммерческое название : Dolby Digital
Идентификатор кодека : A_AC3
Продолжительность : 2 ч. 11 м.
Вид битрейта : Постоянный
Битрейт : 192 Кбит/сек
Каналы : 2 канала
ChannelLayout : L R
Частота : 48,0 КГц
Частота кадров : 31,250 кадров/сек (1536 SPF)
Метод сжатия : С потерями
Размер потока : 180 Мбайт (0%)
Заголовок : Commentary by director Justin Lin
Язык : English
ServiceKind/String : Complete Main
Default : Нет
Forced : Нет

Текст #1
Идентификатор : 8
Формат : UTF-8
Идентификатор кодека : S_TEXT/UTF8
Идентификатор кодека/Информация : UTF-8 Plain Text
Продолжительность : 2 ч. 9 м.
Битрейт : 1 бит/сек
ElementCount : 45
Размер потока : 1,78 Кбайт (0%)
Заголовок : forced
Язык : Russian
Default : Да
Forced : Нет

Текст #2
Идентификатор : 9
Формат : UTF-8
Идентификатор кодека : S_TEXT/UTF8
Идентификатор кодека/Информация : UTF-8 Plain Text
Продолжительность : 2 ч. 9 м.
Битрейт : 63 бит/сек
ElementCount : 1251
Размер потока : 59,9 Кбайт (0%)
Заголовок : full
Язык : Russian
Default : Нет
Forced : Нет

Текст #3
Идентификатор : 10
Формат : UTF-8
Идентификатор кодека : S_TEXT/UTF8
Идентификатор кодека/Информация : UTF-8 Plain Text
Продолжительность : 2 ч. 2 м.
Битрейт : 42 бит/сек
ElementCount : 1270
Размер потока : 38,6 Кбайт (0%)
Заголовок : full
Язык : English
Default : Нет
Forced : Нет

Текст #4
Идентификатор : 11
Формат : UTF-8
Идентификатор кодека : S_TEXT/UTF8
Идентификатор кодека/Информация : UTF-8 Plain Text
Продолжительность : 2 ч. 3 м.
Битрейт : 46 бит/сек
ElementCount : 1458
Размер потока : 42,0 Кбайт (0%)
Заголовок : SDH
Язык : English
Default : Нет
Forced : Нет

Текст #5
Идентификатор : 12
Формат : UTF-8
Идентификатор кодека : S_TEXT/UTF8
Идентификатор кодека/Информация : UTF-8 Plain Text
Продолжительность : 2 ч. 6 м.
Битрейт : 107 бит/сек
ElementCount : 1862
Размер потока : 99,3 Кбайт (0%)
Заголовок : Commentary by director Justin Lin
Язык : English
Default : Нет
Forced : Нет

Меню
00:00:00.000 : en:Chapter 1
00:04:21.011 : en:Chapter 2
00:10:19.118 : en:Chapter 3
00:15:35.268 : en:Chapter 4
00:19:18.574 : en:Chapter 5
00:24:32.721 : en:Chapter 6
00:30:23.405 : en:Chapter 7
00:36:28.478 : en:Chapter 8
00:44:01.305 : en:Chapter 9
00:50:50.255 : en:Chapter 10
00:56:54.327 : en:Chapter 11
01:04:54.057 : en:Chapter 12
01:10:14.293 : en:Chapter 13
01:19:13.457 : en:Chapter 14
01:25:41.178 : en:Chapter 15
01:34:53.771 : en:Chapter 16
01:41:48.561 : en:Chapter 17
01:48:31.838 : en:Chapter 18
01:57:48.812 : en:Chapter 19
02:03:04.418 : en:Chapter 20




Скачать Форсаж 6 через торрент http://s019.radikal.ru/i609/1712/b3/3c7931e2d2e0.jpg Скачать, смотреть онлайн Форсаж 6 бесплантно в хорошем качестве Описание: После того, как Доминик и Брайан были в Рио и ограбили, и свергли империю вора в законе, и их команда получила 100 миллионов, ... 8.9 10 8
Торрент: Зарегистрирован [2019-10-16 00:52] · скачан: 23 раз
Статус: √ проверено
Размер: 55.67 GB
Как cкачать? Как скачать Форсаж 6 через торрент | UTorrent

28-11-2019 20:33  


Отключить вcю реклaмy на сайте, в т.ч. и в плеере онлайн просмотра!

    Дорогой пользователь! Огромная просьба, поблагодарите релизера, оцените раздачу и оставьте свои комментарий, если Вы скачали Форсаж 6 через торрент бесплатно!!
    Комментировать посты могут только пользователи прошедшие не сложную регистрацию
    Показать сообщения:    


    Форсаж 6 через торрент
    Скачать бесплатно Форсаж 6
    Форсаж 6 скачать торрент
    Форсаж 6 смотреть онлайн
    Cкачать фильм Форсаж 6 бесплатно
    Форсаж 6 скачать торрент в хорошем качестве
    Форсаж 6 смотреть онлайн бесплатно в хорошем качестве
    Вы не можете начинать темы
    Вы не можете отвечать на сообщения
    Вы не можете редактировать свои сообщения
    Вы не можете удалять свои сообщения
    Вы не можете голосовать в опросах
    Вы не можете прикреплять файлы к сообщениям
    Вы можете скачивать файлы
    Форсаж 6 / Fast & Furious 6 [2013, Боевик, драма, криминал, триллер, UHD BDRemux 2160p] [Расширенная версия] Дубляж [Лицензия] +3xAVO смотреть онлайн, скачать торрент picoco.icu