Лицензия

MVO

1

1 сезон

Лицензия

Лицензия

13

MVO

1 сезон

Deluxe Edition

pack

Рекомендуем

30

Repack

ВАЖНО

ВАЖНО

Ghostwire

RePack

jed

RePack

fifa19

RePack

RDR2

RePack

NEED FOR SPEED™ PAYBACK

RePack

Кинопоиск HD

 Острые козырьки 6 сезон

6 сезон

FAR CRY 6

RePack

Лицензия

MVO

1

1 сезон

1 сезон

Лицензия

  

Растеряева улица (Виктор Рыжков) [1959, СССР, комедия, экранизация, фильм-спектакль, SATRip от AVP Studio]

Растеряева улица через торрент piratbit.org

Размер: 2.18 GB | Добавлен: 4 года 9 мес. назад | Торрент скачан:20 раз
Смотреть онлайн Растеряева улица | Скачать   

16-12-2017 08:10 Растеряева улица Скачать торрент  

Растеряева улица
Страна: СССР
Производство: Государственный академический Малый театр СССР

Жанр: комедия, экранизация, фильм-спектакль
Год выпуска: 1959
Продолжительность: 02:40:58 (01:19:50 + 01:21:08)

Перевод: Не требуется
Cубтитры: нет
Оригинальная аудиодорожка: русский

Режиссер: Виктор Рыжков

В ролях:
Абрам Незнамов, Степан Каюков, Софья Фадеева, Николай Рыжов, Вера Пашенная, Евдокия Турчанинова, Ольга Хорькова, Елена Хромова, Александр Дегтярь, Борис Телегин, Варвара Обухова, Александр Сашин-Никольский, Тимофей Ванюков, Сергей Чернышев, Александр Грузинский, Пётр Старковский, Сергей Конов, Леонид Титов, Наталья Цветкова, Александр Пронин, Валентина Орлова, Владимир Сверчков, Виталий Игаров, Аркадий Смирнов, Валентина Тёмкина, Елена Рубцова, Дмитрий Павлов, Михаил Садовский (младший), Владимир Головин, Владимир Котельников...
Об актёрах подробней

Описание:
Фильм-спектакль по одноименной комедии М. Нарокова, написанной по мотивам цикла очерков Г. Успенского «Нравы Растеряевой улицы». Постановка Малого театра.
Липа и Вера были подругами с детства. И вот теперь, когда они окончили пансион, перед каждой открылась своя дорога в жизни. Измученная бедностью, Липа поневоле выходит замуж за старого, тупого и злобного Толоконникова.

Исходник: DVB
Качество видео: SATRip
Формат видео: AVI

Видео: 704х528 (4:3), 25 fps, XviD ~ 1737 kbps avg, 0.187 bit/pixel
Аудио: 48 kHz, Dolby Digital AC3 2.0, 192 kbps

Раздача от:
Общее
Полное имя : Rasteryaeva.ulica.1959.SATRip_[New-team]_by_AVP_Studio\Серия 01.avi
Формат : AVI
Формат/Информация : Audio Video Interleave
Размер файла : 1,08 Гбайт
Продолжительность : 1 ч. 19 м.
Общий поток : 1938 Кбит/сек
Программа кодирования : VirtualDubMod 1.5.10.3 | www.virtualdub-fr.org || (build 2550/release)
Библиотека кодирования : VirtualDubMod build 2550/release

Видео
Идентификатор : 0
Формат : MPEG-4 Visual
Профиль формата : Advanced Simple@L5
Настройки формата : BVOP1 / Custom Matrix
Параметр BVOP формата : 1
Параметр QPel формата : Нет
Параметр GMC формата : Без точки перехода
Параметр матрицы формата : Выборочная
Идентификатор кодека : XVID
Идентификатор кодека/Подсказка : XviD
Продолжительность : 1 ч. 19 м.
Битрейт : 1737 Кбит/сек
Ширина : 704 пикселя
Высота : 528 пикселей
Соотношение сторон : 4:3
Частота кадров : 25,000 кадров/сек
Цветовое пространство : YUV
Субдискретизация насыщенности : 4:2:0
Битовая глубина : 8 бит
Тип развёртки : Прогрессивная
Метод сжатия : С потерями
Бит/(Пиксели*Кадры) : 0.187
Размер потока : 992 Мбайт (90%)
Библиотека кодирования : XviD 73

Аудио
Идентификатор : 1
Формат : AC-3
Формат/Информация : Audio Coding 3
Идентификатор кодека : 2000
Продолжительность : 1 ч. 19 м.
Вид битрейта : Постоянный
Битрейт : 192 Кбит/сек
Каналы : 2 канала
Расположение каналов : Front: L R
Частота : 48,0 КГц
Частота кадров : 31,250 кадров/сек (1536 SPF)
Битовая глубина : 16 бит
Метод сжатия : С потерями
Размер потока : 110 Мбайт (10%)
Выравнивание : Разделение по промежуткам
Продолжительность промежутка : 40 мс. (1,00 видеокадр)
Время предзагрузки промежутка : 500 мс



Скачать Растеряева улица через торрент http://i057.radikal.ru/1712/25/d84b8dff9e8d.png Скачать, смотреть онлайн Растеряева улица бесплантно в хорошем качестве Описание:Фильм-спектакль по одноименной комедии М. Нарокова, написанной по мотивам цикла очерков Г. Успенского «Нравы Растеряевой улицы». ... 10 10 1
Info! Золотая раздача, скачанное не засчитывается.
Торрент: Зарегистрирован [2017-12-16 08:10] · скачан: 20 раз
Статус: √ проверено
Размер: 2.18 GB
Как cкачать? Как скачать Растеряева улица через торрент | UTorrent

% Раздел Тема Автор DL S | L
Кино СССР [ 2.18 GB ] Растеряева улица | | SATRip-AVC от AVP Studio AVP Studio Скачать
1 | 0

28-11-2019 20:33  

Отключить вcю реклaмy на сайте

    Дорогой пользователь! Огромная просьба, поблагодарите релизера, оцените раздачу и оставьте свои комментарий, если Вы скачали Растеряева улица через торрент бесплатно!!
    Комментировать посты могут только пользователи прошедшие не сложную регистрацию
    Показать сообщения:    


    Растеряева улица через торрент
    Скачать бесплатно Растеряева улица
    Растеряева улица скачать торрент
    Растеряева улица смотреть онлайн
    Cкачать фильм Растеряева улица бесплатно
    Растеряева улица скачать торрент в хорошем качестве
    Растеряева улица смотреть онлайн бесплатно в хорошем качестве
    Вы не можете начинать темы
    Вы не можете отвечать на сообщения
    Вы не можете редактировать свои сообщения
    Вы не можете удалять свои сообщения
    Вы не можете голосовать в опросах
    Вы не можете прикреплять файлы к сообщениям
    Вы можете скачивать файлы