Лицензия

MVO

1

1 сезон

Лицензия

Лицензия

13

MVO

1 сезон

Deluxe Edition

pack

Рекомендуем

30

Repack

ВАЖНО

ВАЖНО

Ghostwire

RePack

jed

RePack

fifa19

RePack

RDR2

RePack

NEED FOR SPEED™ PAYBACK

RePack

Кинопоиск HD

 Острые козырьки 6 сезон

6 сезон

FAR CRY 6

RePack

Лицензия

MVO

1

1 сезон

1 сезон

Лицензия

  

Косолапый друг (Владимир Сухобоков) [1959, СССР, комедия, SATRip от AVP Studio]

Косолапый друг через торрент piratbit.org

Размер: 1.09 GB | Добавлен: 4 года 9 мес. назад | Торрент скачан:25 раз
Смотреть онлайн Косолапый друг | Скачать   

18-12-2017 08:55 Косолапый друг Скачать торрент  

Косолапый друг
Страна: СССР
Производство: студия им. М. Горького

Жанр: комедия
Год выпуска: 1959
Продолжительность: 01:25:15

Перевод: Не требуется
Cубтитры: нет
Оригинальная аудиодорожка: русский

Режиссер: Владимир Сухобоков

В ролях:
Николай Боголюбов, Людмила Чернышёва, Юрий Дедович, Татьяна Конюхова, Екатерина Савинова, Олег Попов, Константин Сорокин, П. Аверичева, Татьяна Пельтцер, Сергей Филиппов, Сергей Любимов, В. Милёхина...
Об актёрах подробней

Описание:
Цирковая киноповесть по сценарию, изначально писавшемуся Михаилом Вольпиным и Николаем Эрдманом для мультипликации.
Старый дрессировщик Леснов недолюбливал молодёжь. Особенно раздражал Леснова его ассистент Сергей Курихин, считавший себя вполне подготовленным для самостоятельного выступления на арене. Однажды в цирк прибыла комиссия, чтобы отобрать лучшие номера на молодёжный фестиваль.

Исходник: DVB
Качество видео: SATRip
Формат видео: AVI

Видео: 704х528 (4:3), 25 fps, XviD ~ 1628 kbps avg, 0.175 bit/pixel
Аудио: 48 kHz, Dolby Digital AC3 2.0, 192 kbps

Раздача от:
Общее
Полное имя : Kosolapyy.drug.1959.SATRip_[New-team]_by_AVP_Studio.avi
Формат : AVI
Формат/Информация : Audio Video Interleave
Размер файла : 1,09 Гбайт
Продолжительность : 1 ч. 25 м.
Общий поток : 1830 Кбит/сек
Программа кодирования : VirtualDubMod 1.5.10.3 | www.virtualdub-fr.org || (build 2550/release)
Библиотека кодирования : VirtualDubMod build 2550/release

Видео
Идентификатор : 0
Формат : MPEG-4 Visual
Профиль формата : Advanced Simple@L5
Настройки формата : BVOP1 / Custom Matrix
Параметр BVOP формата : 1
Параметр QPel формата : Нет
Параметр GMC формата : Без точки перехода
Параметр матрицы формата : Выборочная
Идентификатор кодека : XVID
Идентификатор кодека/Подсказка : XviD
Продолжительность : 1 ч. 25 м.
Битрейт : 1628 Кбит/сек
Ширина : 704 пикселя
Высота : 528 пикселей
Соотношение сторон : 4:3
Частота кадров : 25,000 кадров/сек
Цветовое пространство : YUV
Субдискретизация насыщенности : 4:2:0
Битовая глубина : 8 бит
Тип развёртки : Прогрессивная
Метод сжатия : С потерями
Бит/(Пиксели*Кадры) : 0.175
Размер потока : 993 Мбайт (89%)
Библиотека кодирования : XviD 73

Аудио
Идентификатор : 1
Формат : AC-3
Формат/Информация : Audio Coding 3
Идентификатор кодека : 2000
Продолжительность : 1 ч. 25 м.
Вид битрейта : Постоянный
Битрейт : 192 Кбит/сек
Каналы : 2 канала
Расположение каналов : Front: L R
Частота : 48,0 КГц
Частота кадров : 31,250 кадров/сек (1536 SPF)
Битовая глубина : 16 бит
Метод сжатия : С потерями
Размер потока : 117 Мбайт (10%)
Выравнивание : Разделение по промежуткам
Продолжительность промежутка : 40 мс. (1,00 видеокадр)
Время предзагрузки промежутка : 500 мс



Скачать Косолапый друг через торрент http://s018.radikal.ru/i526/1712/aa/bce431532897.png Скачать, смотреть онлайн Косолапый друг бесплантно в хорошем качестве Описание:Цирковая киноповесть по сценарию, изначально писавшемуся Михаилом Вольпиным и Николаем Эрдманом для мульликации.Старый ... 10 10 1
Info! Золотая раздача, скачанное не засчитывается.
Торрент: Зарегистрирован [2017-12-18 08:55] · скачан: 25 раз
Статус: √ проверено
Размер: 1.09 GB
Как cкачать? Как скачать Косолапый друг через торрент | UTorrent

% Раздел Тема Автор DL S | L
Кино СССР [ 1.09 GB ] Косолапый друг | | SATRip-AVC от AVP Studio AVP Studio Скачать
1 | 0
Кино СССР [ 746 MB ] Косолапый друг | | SATRip от AVP Studio AVP Studio Скачать
1 | 0

28-11-2019 20:33  

Отключить вcю реклaмy на сайте

    Дорогой пользователь! Огромная просьба, поблагодарите релизера, оцените раздачу и оставьте свои комментарий, если Вы скачали Косолапый друг через торрент бесплатно!!
    Комментировать посты могут только пользователи прошедшие не сложную регистрацию
    Показать сообщения:    


    Косолапый друг через торрент
    Скачать бесплатно Косолапый друг
    Косолапый друг скачать торрент
    Косолапый друг смотреть онлайн
    Cкачать фильм Косолапый друг бесплатно
    Косолапый друг скачать торрент в хорошем качестве
    Косолапый друг смотреть онлайн бесплатно в хорошем качестве
    Вы не можете начинать темы
    Вы не можете отвечать на сообщения
    Вы не можете редактировать свои сообщения
    Вы не можете удалять свои сообщения
    Вы не можете голосовать в опросах
    Вы не можете прикреплять файлы к сообщениям
    Вы можете скачивать файлы