Доктор Стрэндж

Лицензия

Добыча

MVO

Дом дракона

1 сезон

Тор

Лицензия

Мэверик

Лицензия

Там, где раки поют

MVO

Властелин колец

1 сезон

Ultimate

pack

Рекомендуем

30

Repack

ВАЖНО

ВАЖНО

Ghostwire

RePack

jed

RePack

nioh2

RePack

RDR2

RePack

NEED FOR SPEED™ PAYBACK

RePack

скачать торрент

Кинопоиск HD

Острые козырьки 6 сезон

6 сезон

FAR CRY 6

RePack

скачать торрент

Лицензия

скачать торрент

MVO

1

1 сезон

скачать торрент

1 сезон

скачать торрент

Лицензия

  

Люди на мосту (Александр Зархи) [1959, СССР, драма, SATRip от AVP Studio]

Люди на мосту через торрент piratbit.org

Размер: 1.09 GB | Добавлен: 4 года 9 мес. назад | Торрент скачан:15 раз
Смотреть онлайн | Скачать   

19-12-2017 08:55 Люди на мосту Скачать торрент  

Люди на мосту
Страна: СССР
Производство: Мосфильм

Жанр: драма
Год выпуска: 1959
Продолжительность: 01:36:03

Перевод: Не требуется
Cубтитры: нет
Оригинальная аудиодорожка: русский

Режиссер: Александр Зархи

В ролях:
Василий Меркурьев, Наталья Медведева, Александра Завьялова, Олег Табаков, Людмила Касьянова, Евгений Шутов, Владимир Дружников, Глеб Глебов, Юрий Соколик, Степан Каюков, Анатолий Ведёнкин, Нина Дорошина...
Об актёрах подробней

Описание:
В семье Булыгиных царит благополучие. Иван Денисович (Василий Меркурьев) – начальник мостостроительного главка. На работе его окружает атмосфера подчёркнутого уважения. Его жена Анна Семёновна – надежный, испытанный друг. Сын Виктор (Олег Табаков) окончил десятилетку и где-то в Сибири поступает в институт. Дочь Оля – певица. Но неожиданно всё меняется. Мостостроительный главк ликвидировали. Ивану Денисовичу предстоит расстаться с Москвой, со спокойной кабинетной работой и вернуться к профессии мостостроителя.

Исходник: DVB
Качество видео: SATRip
Формат видео: AVI

Видео: 704х528 (4:3), 25 fps, XviD ~ 1423 kbps avg, 0.153 bit/pixel
Аудио: 48 kHz, Dolby Digital AC3 2.0, 192 kbps

Раздача от:
Общее
Полное имя : Lyudi.na.mostu.1959.SATRip_[New-team]_by_AVP_Studio.avi
Формат : AVI
Формат/Информация : Audio Video Interleave
Размер файла : 1,09 Гбайт
Продолжительность : 1 ч. 36 м.
Общий поток : 1625 Кбит/сек
Программа кодирования : VirtualDubMod 1.5.10.3 | www.virtualdub-fr.org || (build 2550/release)
Библиотека кодирования : VirtualDubMod build 2550/release

Видео
Идентификатор : 0
Формат : MPEG-4 Visual
Профиль формата : Advanced Simple@L5
Настройки формата : BVOP1 / Custom Matrix
Параметр BVOP формата : 1
Параметр QPel формата : Нет
Параметр GMC формата : Без точки перехода
Параметр матрицы формата : Выборочная
Идентификатор кодека : XVID
Идентификатор кодека/Подсказка : XviD
Продолжительность : 1 ч. 36 м.
Битрейт : 1423 Кбит/сек
Ширина : 704 пикселя
Высота : 528 пикселей
Соотношение сторон : 4:3
Частота кадров : 25,000 кадров/сек
Цветовое пространство : YUV
Субдискретизация насыщенности : 4:2:0
Битовая глубина : 8 бит
Тип развёртки : Прогрессивная
Метод сжатия : С потерями
Бит/(Пиксели*Кадры) : 0.153
Размер потока : 977 Мбайт (88%)
Библиотека кодирования : XviD 73

Аудио
Идентификатор : 1
Формат : AC-3
Формат/Информация : Audio Coding 3
Идентификатор кодека : 2000
Продолжительность : 1 ч. 36 м.
Вид битрейта : Постоянный
Битрейт : 192 Кбит/сек
Каналы : 2 канала
Расположение каналов : Front: L R
Частота : 48,0 КГц
Частота кадров : 31,250 кадров/сек (1536 SPF)
Битовая глубина : 16 бит
Метод сжатия : С потерями
Размер потока : 132 Мбайт (12%)
Выравнивание : Разделение по промежуткам
Продолжительность промежутка : 40 мс. (1,00 видеокадр)
Время предзагрузки промежутка : 500 мс



Скачать Люди на мосту через торрент http://s017.radikal.ru/i435/1712/1c/ad7aadf91e31.png Скачать, смотреть онлайн Люди на мосту бесплантно в хорошем качестве Описание:В семье Булыгиных царит благополучие. Иван Денисович (Василий Меркурьев) – начальник мостостроительного главка. На работе его ... 10 10 1
Info! Золотая раздача, скачанное не засчитывается.
Торрент: Зарегистрирован [2017-12-19 08:55] · скачан: 15 раз
Статус: √ проверено
Размер: 1.09 GB
Как cкачать? Как скачать Люди на мосту через торрент | UTorrent

% Раздел Тема Автор DL S | L
Кино СССР [ 1.09 GB ] Люди на мосту | | SATRip-AVC от AVP Studio AVP Studio Скачать
1 | 0
Кино СССР [ 746 MB ] Люди на мосту | | SATRip от AVP Studio AVP Studio Скачать
1 | 0

28-11-2019 20:33  


Отключить вcю реклaмy на сайте, в т.ч. и в плеере онлайн просмотра!

    Дорогой пользователь! Огромная просьба, поблагодарите релизера, оцените раздачу и оставьте свои комментарий, если Вы скачали Люди на мосту через торрент бесплатно!!
    Комментировать посты могут только пользователи прошедшие не сложную регистрацию
    Показать сообщения:    


    Люди на мосту через торрент
    Скачать бесплатно Люди на мосту
    Люди на мосту скачать торрент
    Люди на мосту смотреть онлайн
    Cкачать фильм Люди на мосту бесплатно
    Люди на мосту скачать торрент в хорошем качестве
    Люди на мосту смотреть онлайн бесплатно в хорошем качестве
    Вы не можете начинать темы
    Вы не можете отвечать на сообщения
    Вы не можете редактировать свои сообщения
    Вы не можете удалять свои сообщения
    Вы не можете голосовать в опросах
    Вы не можете прикреплять файлы к сообщениям
    Вы можете скачивать файлы