Доктор Стрэндж

Лицензия

Добыча

Дубляж

Уэнсдэй

1 сезон

Тор

Дубляж

В эфире

Дубляж

Там, где раки поют

MVO

Властелин колец

1 сезон

Deluxe

pack

Рекомендуем

30

Пиратка

ВАЖНО

ВАЖНО

Ghostwire

Пиратка

jed

RePack

nioh2

RePack

RDR2

RePack

NEED FOR SPEED™ PAYBACK

RePack

скачать торрент

Кинопоиск HD

Острые козырьки 6 сезон

6 сезон

FAR CRY 6

RePack

скачать торрент

Лицензия

скачать торрент

MVO

1

1 сезон

скачать торрент

1 сезон

скачать торрент

Лицензия

  

Отель Желание / Hotel Desire (Сергей Мойя) [2011, драма, мелодрама, короткометражный, BDRip 720p ] VO

Отель Желание через торрент piratbit.org

Размер: 1.52 GB | Добавлен: 4 года 11 мес. назад | Торрент скачан:104 раза
Смотреть онлайн | Скачать   

23-12-2017 10:15 Отель Желание Скачать торрент  

Название: Отель Желание
Оригинальное название: Hotel Desire
Год выпуска: 2011
Страна: Германия
Жанр: драма, мелодрама, короткометражный
Продолжительность: 00:39:15
Перевод: любительский одноголосый

Режиссер: Сергей Мойя
В ролях: Сарализа Фольм, Клеменс Шик, Ян Грегор Кремп, Херберт Науп, Фредерик Лау, Полина Рожински, Ханс-Уве Бауэр, Карл Льюбек

Описание: Антония, одинокая мать, ведёт монотонный образ жизни, имея напряжённую работу в отеле Берлина, а всё свободное время посвящая воспитанию восьмилетнего сына. Но в один рабочий день, оказавшись в гостиной номера 823, сталкивается с постояльцем Юлием, который слеп… И эта встреча приводит к страстному сексу…



Качество: BDRip 720p
Формат: MKV
Видео: MPEG-4 AVC, 4806 Kбит/с, 1280x544
Аудио 1: русский, AC3, 320 kbps, 2 ch [любительский одноголосый, Олег Воротилин]
Аудио 2: немецкий, AC3, 448 kbps, 6 ch, 48 kHz [оригинал]
Субтитры 1: русские
Субтитры 2: английские
Общее
Уникальный идентификатор : 250204603439064645200238314119326993356 (0xBC3BA75F59B8DE35A999A58952B20BCC)
Полное имя : D:\Video\Отель Желание.2011.BDRip.720p by msltel.mkv
Формат : Matroska
Версия формата : Version 4 / Version 2
Размер файла : 1,52 Гбайт
Продолжительность : 39 м. 15 с.
Общий поток : 5556 Кбит/сек
Название фильма : Rip by msltel
Дата кодирования : UTC 2017-12-23 03:53:49
Программа кодирования : mkvmerge v8.2.0 ('World of Adventure') 64bit
Библиотека кодирования : libebml v1.3.1 + libmatroska v1.4.2

Видео
Идентификатор : 1
Формат : AVC
Формат/Информация : Advanced Video Codec
Профиль формата : High@L4.1
Настройки формата : CABAC / 9 Ref Frames
Параметр CABAC формата : Да
Параметр RefFrames формата : 9 кадров
Идентификатор кодека : V_MPEG4/ISO/AVC
Продолжительность : 39 м. 15 с.
Битрейт : 4806 Кбит/сек
Ширина : 1280 пикселей
Высота : 544 пикселя
Соотношение сторон : 2,35:1
Режим частоты кадров : Постоянный
Частота кадров : 23,976 (24000/1001) кадра/сек
Цветовое пространство : YUV
Субдискретизация насыщенности : 4:2:0
Битовая глубина : 8 бит
Тип развёртки : Прогрессивная
Бит/(Пиксели*Кадры) : 0.288
Размер потока : 1,32 Гбайт (86%)
Библиотека кодирования : x264 core 146 r2538 121396c
Настройки программы : cabac=1 / ref=9 / deblock=1:-3:-2 / analyse=0x3:0x113 / me=umh / subme=11 / psy=1 / psy_rd=1.00:0.15 / mixed_ref=1 / me_range=32 / chroma_me=1 / trellis=2 / 8x8dct=1 / cqm=0 / deadzone=21,11 / fast_pskip=0 / chroma_qp_offset=-3 / threads=6 / lookahead_threads=1 / sliced_threads=0 / nr=0 / decimate=1 / interlaced=0 / bluray_compat=0 / constrained_intra=0 / bframes=6 / b_pyramid=2 / b_adapt=2 / b_bias=0 / direct=1 / weightb=1 / open_gop=0 / weightp=2 / keyint=230 / keyint_min=23 / scenecut=40 / intra_refresh=0 / rc_lookahead=40 / rc=crf / mbtree=0 / crf=17.8 / qcomp=0.60 / qpmin=0 / qpmax=69 / qpstep=4 / vbv_maxrate=62500 / vbv_bufsize=78125 / crf_max=0.0 / nal_hrd=none / filler=0 / ip_ratio=1.40 / pb_ratio=1.30 / aq=1:1.00
Язык : German
Default : Да
Forced : Нет

Аудио #1
Идентификатор : 2
Формат : AC-3
Формат/Информация : Audio Coding 3
Идентификатор кодека : A_AC3
Продолжительность : 36 м. 48 с.
Вид битрейта : Постоянный
Битрейт : 320 Кбит/сек
Каналы : 2 канала
Расположение каналов : Front: L R
Частота : 48,0 КГц
Частота кадров : 31,250 кадров/сек (1536 SPF)
Битовая глубина : 16 бит
Метод сжатия : С потерями
Размер потока : 84,2 Мбайт (5%)
Заголовок : Олег Воротилин
Язык : Russian
ServiceKind/String : Complete Main
Default : Да
Forced : Нет

Аудио #2
Идентификатор : 3
Формат : AC-3
Формат/Информация : Audio Coding 3
Идентификатор кодека : A_AC3
Продолжительность : 39 м. 15 с.
Вид битрейта : Постоянный
Битрейт : 448 Кбит/сек
Каналы : 6 каналов
Расположение каналов : Front: L C R, Side: L R, LFE
Частота : 48,0 КГц
Частота кадров : 31,250 кадров/сек (1536 SPF)
Битовая глубина : 16 бит
Метод сжатия : С потерями
Размер потока : 126 Мбайт (8%)
Заголовок : original
Язык : German
ServiceKind/String : Complete Main
Default : Нет
Forced : Нет

Текст #1
Идентификатор : 4
Формат : UTF-8
Идентификатор кодека : S_TEXT/UTF8
Идентификатор кодека/Информация : UTF-8 Plain Text
Продолжительность : 36 м. 35 с.
Битрейт : 59 бит/сек
ElementCount : 210
Размер потока : 15,9 Кбайт (0%)
Заголовок : русские
Язык : Russian
Default : Нет
Forced : Нет

Текст #2
Идентификатор : 5
Формат : UTF-8
Идентификатор кодека : S_TEXT/UTF8
Идентификатор кодека/Информация : UTF-8 Plain Text
Продолжительность : 36 м. 35 с.
Битрейт : 30 бит/сек
ElementCount : 209
Размер потока : 8,27 Кбайт (0%)
Заголовок : английские
Язык : English
Default : Нет
Forced : Нет



Скачать Отель Желание через торрент http://d.radikal.ru/d16/1712/06/570917eea943.jpg Скачать, смотреть онлайн Отель Желание бесплантно в хорошем качестве Описание: Антония, одинокая мать, ведёт монотонный образ жизни, имея напряжённую работу в отеле Берлина, а всё свободное время посвящая ... 10 10 4
Info! Золотая раздача, скачанное не засчитывается.
Торрент: Зарегистрирован [2017-12-23 10:15] · скачан: 104 раз
Статус: √ проверено
Размер: 1.52 GB
Как cкачать? Как скачать Отель Желание через торрент | UTorrent

% Раздел Тема Автор DL S | L
Фильмы [HD 720p, 1080p] (Звук Cam, VO, DVO) [ 3.96 GB ] Отель Желание / Hotel Desire | | 1080p msltel Скачать
1 | 0

28-11-2019 20:33  


Отключить вcю реклaмy на сайте, в т.ч. и в плеере онлайн просмотра!

    Дорогой пользователь! Огромная просьба, поблагодарите релизера, оцените раздачу и оставьте свои комментарий, если Вы скачали Отель Желание через торрент бесплатно!!
    Комментировать посты могут только пользователи прошедшие не сложную регистрацию
    Показать сообщения:    


    Отель Желание через торрент
    Скачать бесплатно Отель Желание
    Отель Желание скачать торрент
    Отель Желание смотреть онлайн
    Cкачать фильм Отель Желание бесплатно
    Отель Желание скачать торрент в хорошем качестве
    Отель Желание смотреть онлайн бесплатно в хорошем качестве
    Вы не можете начинать темы
    Вы не можете отвечать на сообщения
    Вы не можете редактировать свои сообщения
    Вы не можете удалять свои сообщения
    Вы не можете голосовать в опросах
    Вы не можете прикреплять файлы к сообщениям
    Вы можете скачивать файлы
    Отель Желание / Hotel Desire [2011, драма, мелодрама, короткометражный, BDRip 720p ] VO смотреть онлайн, скачать торрент picoco.icu