Лицензия

MVO

1

1 сезон

Лицензия

Лицензия

13

MVO

1 сезон

Deluxe Edition

pack

Рекомендуем

30

Repack

ВАЖНО

ВАЖНО

Ghostwire

RePack

jed

RePack

fifa19

RePack

RDR2

RePack

NEED FOR SPEED™ PAYBACK

RePack

Кинопоиск HD

 Острые козырьки 6 сезон

6 сезон

FAR CRY 6

RePack

Лицензия

MVO

1

1 сезон

1 сезон

Лицензия

  

Живые герои (Марионас Гедрис, Балис Браткаускас, Арунас Жебрюнас) [1959, СССР, драма, SATRip от AVP Studio]

Живые герои через торрент piratbit.org

Размер: 1.09 GB | Добавлен: 4 года 9 мес. назад | Торрент скачан:13 раз
Смотреть онлайн Живые герои | Скачать   

23-12-2017 13:36 Живые герои Скачать торрент  

Живые герои
Страна: СССР
Производство: Литовская киностудия

Жанр: драма
Год выпуска: 1959
Продолжительность: 01:14:40

Перевод: Не требуется
Cубтитры: нет
Оригинальная аудиодорожка: русский

Режиссер: Марионас Гедрис, Балис Браткаускас, Арунас Жебрюнас

В ролях:
Нериюс Наркис, Витаутас Буйзис, Живиле Якелайтите, Леонидас Милашаускас, Валентинас Тауянскас, Эдуардас Чепулис, Регина Зданавичюте, Казимирас Виткус, Нийоле Нарияускайте-Гражене, Гедиминас Паулюкайтис, Балис Браткаускас, Бронюс Бабкаускас, Антанас Габренас, Стяпонас Космаускас, Владас Юркунас...
Об актёрах подробней

Описание:
По произведению Пятраса Цвирки.
Четыре новеллы о жизни литовских детей в разные периоды жизни республики:
"Нам не нужно" (Mums nebereikia), режиссер Марионас Гедрис;
"Соловей" (Lakštingala), режиссер Балис Браткаускас;
"Последний выстрел" (Paskutinis šūvis), режиссер Арунас Жебрюнас;
"Живые герои" (Gyvieji didvyriai), режиссер Витаутас Жалакявичюс.
Художественный руководитель альманаха - Витаутас Жалакявичюс.

Исходник: DVB
Качество видео: SATRip
Формат видео: AVI

Видео: 704х528 (4:3), 25 fps, XviD ~ 1888 kbps avg, 0.203 bit/pixel
Аудио: 48 kHz, Dolby Digital AC3 2.0, 192 kbps

Раздача от:
Общее
Полное имя : Zhivye.geroi.1959.SATRip_[New-team]_by_AVP_Studio.avi
Формат : AVI
Формат/Информация : Audio Video Interleave
Размер файла : 1,09 Гбайт
Продолжительность : 1 ч. 14 м.
Общий поток : 2090 Кбит/сек
Программа кодирования : VirtualDubMod 1.5.10.3 | www.virtualdub-fr.org || (build 2550/release)
Библиотека кодирования : VirtualDubMod build 2550/release

Видео
Идентификатор : 0
Формат : MPEG-4 Visual
Профиль формата : Advanced Simple@L5
Настройки формата : BVOP1 / Custom Matrix
Параметр BVOP формата : 1
Параметр QPel формата : Нет
Параметр GMC формата : Без точки перехода
Параметр матрицы формата : Выборочная
Идентификатор кодека : XVID
Идентификатор кодека/Подсказка : XviD
Продолжительность : 1 ч. 14 м.
Битрейт : 1888 Кбит/сек
Ширина : 704 пикселя
Высота : 528 пикселей
Соотношение сторон : 4:3
Частота кадров : 25,000 кадров/сек
Цветовое пространство : YUV
Субдискретизация насыщенности : 4:2:0
Битовая глубина : 8 бит
Тип развёртки : Прогрессивная
Метод сжатия : С потерями
Бит/(Пиксели*Кадры) : 0.203
Размер потока : 1008 Мбайт (90%)
Библиотека кодирования : XviD 73

Аудио
Идентификатор : 1
Формат : AC-3
Формат/Информация : Audio Coding 3
Идентификатор кодека : 2000
Продолжительность : 1 ч. 14 м.
Вид битрейта : Постоянный
Битрейт : 192 Кбит/сек
Каналы : 2 канала
Расположение каналов : Front: L R
Частота : 48,0 КГц
Частота кадров : 31,250 кадров/сек (1536 SPF)
Битовая глубина : 16 бит
Метод сжатия : С потерями
Размер потока : 103 Мбайт (9%)
Выравнивание : Разделение по промежуткам
Продолжительность промежутка : 40 мс. (1,00 видеокадр)
Время предзагрузки промежутка : 500 мс



Скачать Живые герои через торрент http://i100.fastpic.ru/big/2017/1223/df/7509f0f6987e55214ddae361ad891edf.png Скачать, смотреть онлайн Живые герои бесплантно в хорошем качестве Описание:По произведению Пятраса Цвирки.Четыре новеллы о жизни литовских детей в разные периоды жизни республики:"Нам не нужно" (Mums ... 10 10 1
Info! Золотая раздача, скачанное не засчитывается.
Торрент: Зарегистрирован [2017-12-23 13:36] · скачан: 13 раз
Статус: √ проверено
Размер: 1.09 GB
Как cкачать? Как скачать Живые герои через торрент | UTorrent

% Раздел Тема Автор DL S | L
Кино СССР [ 1.09 GB ] Живые герои | | SATRip-AVC от AVP Studio AVP Studio Скачать
1 | 0

28-11-2019 20:33  

Отключить вcю реклaмy на сайте

    Дорогой пользователь! Огромная просьба, поблагодарите релизера, оцените раздачу и оставьте свои комментарий, если Вы скачали Живые герои через торрент бесплатно!!
    Комментировать посты могут только пользователи прошедшие не сложную регистрацию
    Показать сообщения:    


    Живые герои через торрент
    Скачать бесплатно Живые герои
    Живые герои скачать торрент
    Живые герои смотреть онлайн
    Cкачать фильм Живые герои бесплатно
    Живые герои скачать торрент в хорошем качестве
    Живые герои смотреть онлайн бесплатно в хорошем качестве
    Вы не можете начинать темы
    Вы не можете отвечать на сообщения
    Вы не можете редактировать свои сообщения
    Вы не можете удалять свои сообщения
    Вы не можете голосовать в опросах
    Вы не можете прикреплять файлы к сообщениям
    Вы можете скачивать файлы