1 сезон

iTunes

iTunes

1

Line

MVO

iTunes

13

1 сезон

RePack

30

Deluxe

pack

Лицензия

ВАЖНО

ИГРА 18+

pack

RePack

MK11

RePack

jed

RePack

fifa19

RePack

RDR2

RePack

NEED FOR SPEED™ PAYBACK

4 сезон

9 сезон

Бесстыжие 9 сезон

Все сериалы

все сериалы на PB.wtf

RePack

FAR CRY 5

Anonymous, добрый вечер, мы катастрофически не успеваем собрать деньги на оплату серверов, помогите нам пожалуйста 5,10,15р., для нас важна любая помощь . В качестве благодарности мы отключим Вам всю рекламу на сайте (укажите свой ник в строку Ваше имя)!

×
  
Magnet ссылка

Видимость гнева / The Upside of Anger (Майк Байндер) [2005 г., Драма, комедия, BDRip-AVC, Профессиональный (двухголосый) + Авторский (Е.Рудой)] от ExKinoRay piratbit.org

Видимость гнева через торрент piratbit.org

Размер: 2.88 GB | Добавлен: 3 года 7 мес. назад | Торрент скачан:11 раз
Скачать  

24-12-2017 04:44 Видимость гнева Скачать торрент  

Видимость гнева / The Upside of Anger
Год выпуска: 2005
Страна: США, Германия, Великобритания
Жанр: Драма, комедия
Продолжительность: 01:56:46
Перевод: Профессиональный (двухголосый)
Субтитры: Русские, английские

Режиссер: Майк Байндер

Бюджет: $12 000 000
Премьера в мире: 23 января 2005

rating

В ролях: Джоан Аллен, Кевин Костнер, Эрика Кристенсен, Кери Расселл, Алисия Уитт, Ивэн Рэйчел Вуд, Майк Байндер, Том Харпер, Дэйн Кристенсен, Дэниэл Уэбб

Описание: После неожиданного исчезновения мужа и главы семейства Тери Вольфмайер, обычная провинциальная домохозяйка, вынуждена в одиночку заботиться сразу о четырех дочках. Постепенно, для растерянной Терри единственным утешением становится алкоголь. Но однажды Терри знакомится с соседом по имени Дэнни, бывшим бейсболистом, а ныне ведущим на радио. Терри серьезно влюбляется в своего нового друга. Он возвращает ей волю к жизни и частично заменяет дочерям Терри отца. Но девочки решают обернуть ситуацию в свою пользу. Они оказываются в трудном положении, так как с этих пор им приходится решать не только свои проблемы, но и проблемы матери. Ситуация осложняется, когда Терри обнаруживает, что привязанность ее детей к Дэнни идет в разрез с ее собственными интересами...

Доп. информация: Перевод: Профессиональный двухголосый (R5), авторский (Е.Рудой)
Навигация по главам: Есть

Качество: BDRip-AVC
Формат: MKV
Видео кодек: MPEG4
Аудио кодек: AC3
Видео: MPEG-4 AVC, 2500 Кбит/с, 1024x432, 23.976 кадра/сек
Аудио#1: Русский (AC3, 2 ch, 192 Кбит/с, 48 КГц) - R5
Аудио#2: Русский (AC3, 6 ch, 384 Кбит/с, 48 КГц) - Е.Рудой
Аудио#3: Английский (AC3, 6 ch, 448 Кбит/с, 48 КГц)
Релиз от:




raw [info]: 1024x432p 1:1 @ 24000/1001 fps (cfr)
x264 [info]: using SAR=1/1
x264 [info]: using cpu capabilities: MMX2 SSE2Fast LZCNT
x264 [info]: profile High, level 4.1
x264 [info]: frame I:1148 Avg QP:15.64 size: 92997
x264 [info]: frame P:36167 Avg QP:18.21 size: 27489
x264 [info]: frame B:130673 Avg QP:19.86 size: 8322
x264 [info]: consecutive B-frames: 1.5% 1.9% 7.0% 25.1% 21.5% 34.4% 5.0% 1.7% 0.7% 0.3% 0.2% 0.1% 0.1% 0.1% 0.1% 0.0% 0.2%
-----
Общее
Уникальный идентификатор : 205364751903348242208488404485320694420 (0x9A7FD001643427B3A3168E6616BF5A94)
Полное имя : D:\ExKinoRay\Upside.of.Anger.2005.BDRip-AVC.ExKinoRay.mkv
Формат : Matroska
Версия формата : Version 2
Размер файла : 2,88 Гбайт
Продолжительность : 1 ч. 56 м.
Общий поток : 3525 Кбит/сек
Дата кодирования : UTC 2017-12-24 01:14:32
Программа кодирования : mkvmerge v7.8.0 ('River Man') 32bit built on Apr 3 2015 12:11:22
Библиотека кодирования : libebml v1.3.1 + libmatroska v1.4.2

Видео
Идентификатор : 1
Формат : AVC
Формат/Информация : Advanced Video Codec
Профиль формата : High@L4.1
Параметр CABAC формата : Да
Параметр ReFrames формата : 14 кадров
Идентификатор кодека : V_MPEG4/ISO/AVC
Продолжительность : 1 ч. 56 м.
Битрейт : 2500 Кбит/сек
Ширина : 1024 пикселя
Высота : 432 пикселя
Соотношение сторон : 2,40:1
Режим частоты кадров : Постоянный
Частота кадров : 23,976 (24000/1001) кадра/сек
Цветовое пространство : YUV
Субдискретизация насыщенности : 4:2:0
Битовая глубина : 8 бит
Тип развёртки : Прогрессивная
Бит/(Пиксели*Кадры) : 0.236
Размер потока : 1,98 Гбайт (69%)
Библиотека кодирования : x264 core 148 r2638 7599210
Настройки программы : cabac=1 / ref=14 / deblock=1:-3:-2 / analyse=0x3:0x113 / me=umh / subme=10 / psy=1 / psy_rd=1.00:0.10 / mixed_ref=1 / me_range=32 / chroma_me=1 / trellis=2 / 8x8dct=1 / cqm=0 / deadzone=21,11 / fast_pskip=0 / chroma_qp_offset=-3 / threads=4 / lookahead_threads=1 / sliced_threads=0 / nr=0 / decimate=0 / interlaced=0 / bluray_compat=0 / constrained_intra=0 / bframes=16 / b_pyramid=2 / b_adapt=2 / b_bias=0 / direct=3 / weightb=1 / open_gop=0 / weightp=2 / keyint=250 / keyint_min=23 / scenecut=40 / intra_refresh=0 / rc=2pass / mbtree=0 / bitrate=2500 / ratetol=1.0 / qcomp=0.60 / qpmin=0 / qpmax=69 / qpstep=4 / cplxblur=20.0 / qblur=0.5 / ip_ratio=1.40 / pb_ratio=1.30 / aq=3:1.00
Язык : English
Default : Да
Forced : Нет
Цветовой диапазон : Limited
Основные цвета : BT.709
Характеристики трансфера : BT.709
Коэффициенты матрицы : BT.709

Аудио #1
Идентификатор : 2
Формат : AC-3
Формат/Информация : Audio Coding 3
Расширение режима : CM (complete main)
Параметр Endianness формата : Big
Идентификатор кодека : A_AC3
Продолжительность : 1 ч. 56 м.
Вид битрейта : Постоянный
Битрейт : 192 Кбит/сек
Каналы : 2 канала
Расположение каналов : Front: L R
Частота : 48,0 КГц
Частота кадров : 31,250 кадров/сек (1536 spf)
Метод сжатия : С потерями
Размер потока : 160 Мбайт (5%)
Заголовок : R5
Язык : Russian
Default : Да
Forced : Нет

Аудио #2
Идентификатор : 3
Формат : AC-3
Формат/Информация : Audio Coding 3
Расширение режима : CM (complete main)
Параметр Endianness формата : Big
Идентификатор кодека : A_AC3
Продолжительность : 1 ч. 56 м.
Вид битрейта : Постоянный
Битрейт : 384 Кбит/сек
Каналы : 6 каналов
Расположение каналов : Front: L C R, Side: L R, LFE
Частота : 48,0 КГц
Частота кадров : 31,250 кадров/сек (1536 spf)
Метод сжатия : С потерями
Размер потока : 321 Мбайт (11%)
Заголовок : Е. Рудой
Язык : Russian
Default : Нет
Forced : Нет

Аудио #3
Идентификатор : 4
Формат : AC-3
Формат/Информация : Audio Coding 3
Расширение режима : CM (complete main)
Параметр Endianness формата : Big
Идентификатор кодека : A_AC3
Продолжительность : 1 ч. 56 м.
Вид битрейта : Постоянный
Битрейт : 448 Кбит/сек
Каналы : 6 каналов
Расположение каналов : Front: L C R, Side: L R, LFE
Частота : 48,0 КГц
Частота кадров : 31,250 кадров/сек (1536 spf)
Метод сжатия : С потерями
Размер потока : 374 Мбайт (13%)
Язык : English
Default : Нет
Forced : Нет

Текст #1
Идентификатор : 5
Формат : UTF-8
Идентификатор кодека : S_TEXT/UTF8
Идентификатор кодека/Информация : UTF-8 Plain Text
Язык : Russian
Default : Да
Forced : Нет

Текст #2
Идентификатор : 6
Формат : UTF-8
Идентификатор кодека : S_TEXT/UTF8
Идентификатор кодека/Информация : UTF-8 Plain Text
Язык : English
Default : Нет
Forced : Нет

Меню
00:00:00.000 : en:00:00:00.000
00:08:21.334 : en:00:08:21.334
00:16:09.093 : en:00:16:09.093
00:24:54.660 : en:00:24:54.660
00:33:03.064 : en:00:33:03.064
00:42:59.035 : en:00:42:59.035
00:50:40.746 : en:00:50:40.746
00:58:03.230 : en:00:58:03.230
01:07:01.309 : en:01:07:01.309
01:14:15.910 : en:01:14:15.910
01:22:03.168 : en:01:22:03.168
01:29:08.218 : en:01:29:08.218
01:38:09.050 : en:01:38:09.050
01:46:26.797 : en:01:46:26.797

piratbit.org



Скачать Видимость гнева через торрент http://a.radikal.ru/a31/1712/c2/83d39c8e9b5f.jpg Скачать фильм Видимость гнева через торрент бесплантно в хорошем качестве Описание: После неожиданного исчезновения мужа и главы семейства Тери Вольфмайер, обычная провинциальная домохозяйка, вынуждена в одиночку ... 10 10 1
Info! Золотая раздача, скачанное не засчитывается.
Торрент: Зарегистрирован [2017-12-24 04:44] · скачан: 11 раз
Статус: √ проверено
Размер: 2.88 GB
Как cкачать? Как скачать Видимость гнева через торрент | UTorrent

28-11-2019 20:33  

Отключить всю рекламу на сайте


24-12-2017 06:09 Видимость гнева Скачать торрент  

Топик был перенесен из форума Оформление раздач (Кино, Видео и ТВ) в форум Фильмы 2001-2005


-Lexx-piratbit.org



    Дорогой пользователь! Огромная просьба, поблагодарите релизера, оцените раздачу и оставьте свои комментарий, если Вы скачали Видимость гнева через торрент бесплатно! Внесите свою лепту в развитие PiratBit!
    Комментировать посты могут только пользователи прошедшие не сложную регистрацию
    Показать сообщения:    

    Видимость гнева через торрент
    Скачать бесплатно Видимость гнева
    Видимость гнева скачать торрент
    Видимость гнева смотреть онлайн
    Cкачать фильм Видимость гнева бесплатно
    Видимость гнева скачать торрент в хорошем качестве
    Видимость гнева смотреть онлайн бесплатно в хорошем качестве


    Вы не можете начинать темы
    Вы не можете отвечать на сообщения
    Вы не можете редактировать свои сообщения
    Вы не можете удалять свои сообщения
    Вы не можете голосовать в опросах
    Вы не можете прикреплять файлы к сообщениям
    Вы можете скачивать файлы