Ссылка на приватное зеркало нашего сайта всего за 1$. Внимание количество ограничено!!!

2 сезон

iTunes

iTunes

1

iTunes

iTunes

iTunes

WEBRip

iTunes

30
pack

Вам бонус

ВАЖНО

!!Акция!!

Alien_RageХит недели

RePack

Horizon Zero Dawn

ИГРА 18+

pack

RePack

jed

!!Акция!!

Alien_Rage

RePack

fifa19

RePack

Assassins Creed: Odyssey

RePack

NEED FOR SPEED™ PAYBACK

4 сезон

9 сезон

Бесстыжие 9 сезон

Все сериалы

все сериалы на PB.wtf

RePack

FAR CRY 5
  

Рождество / This Christmas (Престон А. Витмор II) [2007 г, драма, мелодрама, комедия, HDRip] MVO piratbit.org

Рождество через торрент piratbit.org

Размер: 1.45 GB | Добавлен: 2 года 9 мес. назад | Торрент скачан:20 раз
Скачать  

24-12-2017 09:04 Рождество Скачать торрент  

Рождество / This Christmas
Год выпуска: 2007
Страна: США
Жанр: драма, мелодрама, комедия
Продолжительность: 01:58:53
Перевод: Профессиональный (многоголосый)

Режиссер: Престон А. Витмор II

rating

В ролях: Лаз Алонсо, Шэрон Лил, Идрис Эльба, Лоурен Лондон, Реджина Кинг, Коламбус Шорт, Мехи Файфер, Лоретта Дивайн, Джессика Страуп, Делрой Линдо

Описание: Впервые за несколько лет все детки семейства Витфилд собираются дома, чтобы провести рождественские каникулы вместе с любимой мамочкой и ее бой-френдом Джо. И каждый из них привозит с собой неимоверное количество багажа. Когда же яркие гирлянды развешены, праздничные огни осветили дом, и рождественское убранство разместилось на елке, тут-то и открывается секрет неожиданного сплочения.

Качество: HDRip
Формат: AVI
Видео: XviD, 1545 Кбит/с, 720x304, 23.976 кадр/с
Аудио: AC3, 2 ch, 192 Кбит/с
Релиз от: Koenig
скриншот   скриншот   скриншот   скриншот   скриншот   скриншот  

Общее
Полное имя : This.Christmas.2007.HDRip.avi
Формат : AVI
Формат/Информация : Audio Video Interleave
Размер файла : 1,45 Гбайт
Продолжительность : 1 ч. 58 м.
Общий поток : 1746 Кбит/сек
Программа кодирования : VirtualDubMod 1.5.10.2 (build 2540/release)
Библиотека кодирования : VirtualDubMod build 2540/release

Видео
Идентификатор : 0
Формат : MPEG-4 Visual
Профиль формата : Advanced Simple@L5
Параметр BVOP формата : 1
Параметр QPel формата : Нет
Параметр GMC формата : Без точки перехода
Параметр матрицы формата : Выборочная
Идентификатор кодека : XVID
Идентификатор кодека/Подсказка : XviD
Продолжительность : 1 ч. 58 м.
Битрейт : 1545 Кбит/сек
Ширина : 720 пикселей
Высота : 304 пикселя
Соотношение сторон : 2,35:1
Частота кадров : 23,976 (24000/1001) кадра/сек
Цветовое пространство : YUV
Субдискретизация насыщенности : 4:2:0
Битовая глубина : 8 бит
Тип развёртки : Прогрессивная
Метод сжатия : С потерями
Бит/(Пиксели*Кадры) : 0.294
Размер потока : 1,28 Гбайт (88%)
Библиотека кодирования : XviD 65

Аудио
Идентификатор : 1
Формат : AC-3
Формат/Информация : Audio Coding 3
Параметр Endianness формата : Big
Идентификатор кодека : 2000
Продолжительность : 1 ч. 58 м.
Вид битрейта : Постоянный
Битрейт : 192 Кбит/сек
Каналы : 2 канала
Расположение каналов : Front: L R
Частота : 48,0 КГц
Частота кадров : 31,250 кадров/сек (1536 spf)
Битовая глубина : 16 бит
Метод сжатия : С потерями
Размер потока : 163 Мбайт (11%)
Выравнивание : Разделение по промежуткам
Продолжительность промежутка : 42 мс. (1,00 видеокадр)
Время предзагрузки промежутка : 500 мс.
ServiceKind/String : Complete Main

piratbit.org



Скачать Рождество через торрент http://pic1.kartinco.top/images/11/1rm4u.jpg Скачать фильм Рождество через торрент бесплантно в хорошем качестве Описание: Впервые за несколько лет все детки семейства Витфилд собираются дома, чтобы провести рождественские каникулы вместе с любимой ... 10 10 1
Торрент: Зарегистрирован [2017-12-24 09:04] · скачан: 20 раз
Статус: √ проверено
Размер: 1.45 GB
Как cкачать? Как скачать Рождество через торрент | qTorrent

28-11-2019 20:33  

Отключить всю рекламу на сайте

    Дорогой пользователь! Огромная просьба, поблагодарите релизера, оцените раздачу и оставьте свои комментарий, если Вы скачали Рождество через торрент бесплатно! Внесите свою лепту в развитие PiratBit!
    Комментировать посты могут только пользователи прошедшие не сложную регистрацию
    Показать сообщения:    

    Рождество через торрент
    Скачать бесплатно Рождество
    Рождество скачать торрент
    Рождество смотреть онлайн
    Cкачать фильм Рождество бесплатно
    Рождество скачать торрент в хорошем качестве
    Рождество смотреть онлайн бесплатно в хорошем качестве


    Вы не можете начинать темы
    Вы не можете отвечать на сообщения
    Вы не можете редактировать свои сообщения
    Вы не можете удалять свои сообщения
    Вы не можете голосовать в опросах
    Вы не можете прикреплять файлы к сообщениям
    Вы можете скачивать файлы