1 сезон

3 сезон

iTunes

1

iTunes

DUB Netflix

iTunes

13

1 сезон

RePack

30

Deluxe

pack

Легкие деньги

ВАЖНО

ИГРА 18+

pack

RePack

MK11

RePack

jed

RePack

fifa19

RePack

RDR2

RePack

NEED FOR SPEED™ PAYBACK

4 сезон

9 сезон

Бесстыжие 9 сезон

Все сериалы

все сериалы на PB.wtf

RePack

FAR CRY 5

Anonymous, доброй ночи, мы не успеваем до 1 числа собрать деньги на оплату серверов, помогите нам пожалуйста в это трудное время. В качестве благодарности мы отключим Вам всю рекламу на сайте (укажите свой ник в строку Ваше имя)!

×
  
Magnet ссылка

Универ. Новая общага (Новогодняя серия) (Константин Колесов) [2017, Россия, комедия, WEB-DL 720p] piratbit.org

Универ. Новая общага через торрент piratbit.org

Размер: 670 MB | Добавлен: 3 года 5 мес. назад | Торрент скачан:221 раз
Скачать  

27-12-2017 22:37 Универ. Новая общага Скачать торрент  

Универ. Новая общага (Новогодняя серия)


  • Год выпуска: 2017
  • Страна: Россия
  • Жанр: комедия
  • Продолжительность: ~ 00:25:00 (Серия)
  • Перевод: Не требуется
  • Режиссер: Константин Колесов
  • В ролях:

    Виталий Гогунский (Кузя), Арарат Кещян (Майкл), Станислав Ярушин (Антон), Анна Кузина (Яна Семакина), Настасья Самбурская (Кристина Соколовская), Анна Хилькевич (Маша Белова), Анастасия Иванова (Юля Семакина, младшая сестра Яны), Владимир Фекленко (Олег Смирнов), Елена Валюшкина (Зоя Михайловна), Андрей Лебедев (Лев Мартынов, олигарх), Сергей Пиоро (Павел Владимирович), Роман Куперман (Федоренко)

  • Описание:

    Что такое Новый год? Запах мандаринов, елка, китайская пиротехника, вечная беготня за подарками в самый последний момент. И, конечно, новогоднее чудо! В сегодняшнем новогоднем эпизоде «Универа» Антону Мартынову выпадет уникальный шанс изменить свою жизнь, надо только правильно попросить об этом Дедушку Мороза. Но ему нужно быть осторожнее со своими желаниями — ведь они могут сбыться…
  • Рейтинг:



  • Качество: WEB-DL 720p
  • Формат: :MKV
  • Видео кодек: AVC
  • Аудио кодек: AC-3
  • Видео: 3516 Кбит/сек, 1280*720 (16:9), в 25,000 кадров/сек, AVC
  • Аудио: 192 Кбит/сек, 44,1 КГц, 16 бит, 2 канала, AC-3
  • Релиз от: Files-x

    Общее
    Уникальный идентификатор : 60593495143653135825739624846468681724 (0x2D95E1F6DF57E8960E78A734ED758FFC)
    Полное имя : F:\Универ. Новая общага (Новогоднии серии).2016-2017.WEB-DL.720p.Files-x.mkv
    Формат : Matroska
    Версия формата : Version 2
    Размер файла : 670 Мбайт
    Продолжительность : 24 м. 46 с.
    Общий поток : 3783 Кбит/сек
    Программа кодирования : Lavf54.63.104
    Библиотека кодирования : Lavf54.63.104

    Видео
    Идентификатор : 1
    Формат : AVC
    Формат/Информация : Advanced Video Codec
    Профиль формата : High@L3.1
    Настройки формата : CABAC / 1 Ref Frames
    Параметр CABAC формата : Да
    Параметр RefFrames формата : 1 кадр
    Параметр GOP формата : M=1, N=12
    Идентификатор кодека : V_MPEG4/ISO/AVC
    Продолжительность : 24 м. 46 с.
    Битрейт : 3516 Кбит/сек
    Ширина : 1280 пикселей
    Высота : 720 пикселей
    Соотношение сторон : 16:9
    Режим частоты кадров : Постоянный
    Частота кадров : 25,000 кадров/сек
    Стандарт вещания : Component
    Цветовое пространство : YUV
    Субдискретизация насыщенности : 4:2:0
    Битовая глубина : 8 бит
    Тип развёртки : Прогрессивная
    Бит/(Пиксели*Кадры) : 0.153
    Размер потока : 623 Мбайт (93%)
    Default : Нет
    Forced : Нет
    Цветовой диапазон : Limited

    Аудио
    Идентификатор : 2
    Формат : AC-3
    Формат/Информация : Audio Coding 3
    Идентификатор кодека : A_AC3
    Продолжительность : 24 м. 46 с.
    Вид битрейта : Постоянный
    Битрейт : 192 Кбит/сек
    Каналы : 2 канала
    Расположение каналов : Front: L R
    Частота : 44,1 КГц
    Частота кадров : 28,711 кадров/сек (1536 SPF)
    Битовая глубина : 16 бит
    Метод сжатия : С потерями
    Размер потока : 34,0 Мбайт (5%)
    ServiceKind/String : Complete Main
    Default : Да
    Forced : Нет

    Скриншоты:
    скриншот   скриншот   скриншот   скриншот   скриншот   скриншот   скриншот  
    скриншот  


    piratbit.org



  • Скачать Универ. Новая общага через торрент https://pic1.kartinco.top/images/11/di6hw.jpg Скачать фильм Универ. Новая общага через торрент бесплантно в хорошем качестве Описание: Что такое Новый год? Запах мандаринов, елка, китайская пиротехника, вечная беготня за подарками в самый последний момент. И, ... 8.7 10 7
    Торрент: Зарегистрирован [2017-12-27 22:37] · скачан: 221 раз
    Статус: √ проверено
    Размер: 670 MB
    Как cкачать? Как скачать Универ. Новая общага через торрент | UTorrent

    % Раздел Тема Автор DL S | L
    TNT serials [ 90.02 GB ] Универ. Новая общага / Сезоны: 1-15 / Серии: 1-295 из 295 [2011-2018 Ситком SATRip] bober100 Скачать
    1 | 0
    TNT serials [ 5.91 GB ] Универ. Новая общага: Финальный сезон / Сезон: 15 / Серии: 1-18 из 18 + Фильм о Фильме [2018 Ситком SATRip] bober100 Скачать
    1 | 0
    TNT serials [ 6.33 GB ] Универ. Новая общага: Финальный сезон / Сезон: 15 / Серии: 1-18 из 18 + Фильм о фильме [2018 Ситком WEB-DLRip] bober100 Скачать
    1 | 0
    TNT serials [ 6.92 GB ] Универ. Новая общага: Финальный сезон / Сезон: 15 / Серии: 1-18 из 18 + Фильм о Фильме [2018 Ситком HDTVRip-AVC] bober100 Скачать
    1 | 0
    TNT serials [ 12.31 GB ] Универ. Новая общага: Финальный сезон / Сезон: 15 / Серии: 1-18 из 18 + Фильм о фильме [2018 Ситком WEB-DL 720p] bober100 Скачать
    1 | 0
    TNT serials [ 13.39 GB ] Универ. Новая общага: Финальный сезон / Сезон: 15 / Серии: 1-18 из 18 + Фильм о фильме [2018 Ситком HDTVRip 720p] bober100 Скачать
    1 | 0
    TNT serials [ 26.02 GB ] Универ. Новая общага: Финальный сезон / Сезон: 15 / Серии: 1-18 из 18 + Фильм о фильме [2018 Ситком HDTV 1080i] bober100 Скачать
    1 | 0

    28-11-2019 20:33  

    Отключить всю рекламу на сайте

      Дорогой пользователь! Огромная просьба, поблагодарите релизера, оцените раздачу и оставьте свои комментарий, если Вы скачали Универ. Новая общага через торрент бесплатно! Внесите свою лепту в развитие PiratBit!
      Комментировать посты могут только пользователи прошедшие не сложную регистрацию
      Показать сообщения:    

      Универ. Новая общага через торрент
      Скачать бесплатно Универ. Новая общага
      Универ. Новая общага скачать торрент
      Универ. Новая общага смотреть онлайн
      Cкачать фильм Универ. Новая общага бесплатно
      Универ. Новая общага скачать торрент в хорошем качестве
      Универ. Новая общага смотреть онлайн бесплатно в хорошем качестве


      Вы не можете начинать темы
      Вы не можете отвечать на сообщения
      Вы не можете редактировать свои сообщения
      Вы не можете удалять свои сообщения
      Вы не можете голосовать в опросах
      Вы не можете прикреплять файлы к сообщениям
      Вы можете скачивать файлы