1 сезон

3 сезон

iTunes

1

iTunes

DUB Netflix

iTunes

13

1 сезон

RePack

30

Deluxe

pack

Легкие деньги

ВАЖНО

ИГРА 18+

pack

RePack

MK11

RePack

jed

RePack

fifa19

RePack

RDR2

RePack

NEED FOR SPEED™ PAYBACK

4 сезон

9 сезон

Бесстыжие 9 сезон

Все сериалы

все сериалы на PB.wtf

RePack

FAR CRY 5

Anonymous, доброй ночи, мы не успеваем до 1 числа собрать деньги на оплату серверов, помогите нам пожалуйста в это трудное время. В качестве благодарности мы отключим Вам всю рекламу на сайте (укажите свой ник в строку Ваше имя)!

×
  
Magnet ссылка

СашаТаня (Новогодняя серия) (Михаил Старчак) [2017, Россия, комедия, SATRip) piratbit.org

СашаТаня через торрент piratbit.org

Размер: 253 MB | Добавлен: 3 года 5 мес. назад | Торрент скачан:165 раз
Скачать  

28-12-2017 11:51 СашаТаня Скачать торрент  

СашаТаня (Новогодняя серия)


  • Год выпуска: 2017
  • Страна: Россия
  • Жанр: комедия
  • Продолжительность: 00:20:00
  • Перевод: Не требуется [Русский]
  • Режиссер: Михаил Старчак
  • В ролях:

    Андрей Гайдулян (Саша), Валентина Рубцова (Таня), Алексей Климушкин (Сильвестр Андреевич Сергеев), Андрей Свиридов (Гена), Алексей Гаврилов (Гоша Рудковский), Лариса Баранова (Лиля Волкова), Виталий Гогунский, Арарат Кещян, Наталья Ходус, Виктор Полторацкий (финансовый директор Сергей Геннадьевич), Павел Кассинский (сосед), Александр Новик (менеджер)


  • Сериал про молодую семью Сергеевых. После окончания института Саша и Таня вместе со своим маленьким сыном Алёшкой решили пожить самостоятельно и сняли квартиру в Алтуфьево. Райончик конечно не из лучших, но зато и цены на жилье тут доступные, ведь Саша не собирается пользоваться миллиардами своего папы. Но Сильвестр Андреевич не собирается так просто отставать от молодых и тем более от своего внука. Поэтому он поселился по соседству, только в просторной и роскошной квартире.
  • Рейтинг:



  • Качество: SATRip
  • Формат: :AVI
  • Видео кодек: XviD
  • Аудио кодек: MP3
  • Видео: 1680 Кбит/сек, 720*400 (16:9), в 25,000 кадров/сек, MPEG-4 Visual (XviD)
  • Аудио: 128 Кбит/сек, 48,0 КГц, 2 канала, MPEG Audio (MP3)
  • Релиз от: Files-x


    Общее
    Полное имя : F:\Sacha.Tania.New.Year.2017.SATRip.avi
    Формат : AVI
    Формат/Информация : Audio Video Interleave
    Размер файла : 253 Мбайт
    Продолжительность : 19 м. 29 с.
    Общий поток : 1818 Кбит/сек
    Программа кодирования : VirtualDubMod 1.5.10.3 | www.virtualdub-fr.org || (build 2550/release)
    Библиотека кодирования : VirtualDubMod build 2550/release

    Видео
    Идентификатор : 0
    Формат : MPEG-4 Visual
    Профиль формата : Advanced Simple@L5
    Настройки формата : BVOP2
    Параметр BVOP формата : 2
    Параметр QPel формата : Нет
    Параметр GMC формата : Без точки перехода
    Параметр матрицы формата : Default (H.263)
    Идентификатор кодека : XVID
    Идентификатор кодека/Подсказка : XviD
    Продолжительность : 19 м. 29 с.
    Битрейт : 1680 Кбит/сек
    Ширина : 720 пикселей
    Высота : 400 пикселей
    Соотношение сторон : 16:9
    Частота кадров : 25,000 кадров/сек
    Цветовое пространство : YUV
    Субдискретизация насыщенности : 4:2:0
    Битовая глубина : 8 бит
    Тип развёртки : Прогрессивная
    Метод сжатия : С потерями
    Бит/(Пиксели*Кадры) : 0.233
    Размер потока : 234 Мбайт (92%)
    Библиотека кодирования : XviD 1.2.1 (UTC 2008-12-04)

    Аудио
    Идентификатор : 1
    Формат : MPEG Audio
    Версия формата : Version 1
    Профиль формата : Layer 3
    Идентификатор кодека : 55
    Идентификатор кодека/Подсказка : MP3
    Продолжительность : 19 м. 29 с.
    Вид битрейта : Постоянный
    Битрейт : 128 Кбит/сек
    Каналы : 2 канала
    Частота : 48,0 КГц
    Частота кадров : 41,667 кадра/сек (1152 SPF)
    Метод сжатия : С потерями
    Размер потока : 17,8 Мбайт (7%)
    Выравнивание : Соединение по промежуткам
    Продолжительность промежутка : 40 мс. (1,00 видеокадр)
    Время предзагрузки промежутка : 504 мс.
    Библиотека кодирования : LAME3.99r
    Настройки программы : -m s -V 4 -q 9 -lowpass 17 -b 128

    Скриншоты:
    скриншот   скриншот   скриншот   скриншот   скриншот   скриншот   скриншот  
    скриншот  
    piratbit.org



  • Скачать СашаТаня через торрент https://pic1.kartinco.top/images/11/wvtdd.jpg Скачать фильм СашаТаня через торрент бесплантно в хорошем качестве qw.png Сериал про молодую семью Сергеевых. После окончания института Саша и Таня вместе со своим маленьким сыном Алёшкой решили пожить ... 10 10 4
    Торрент: Зарегистрирован [2017-12-28 11:51] · скачан: 165 раз
    Статус: √ проверено
    Размер: 253 MB
    Как cкачать? Как скачать СашаТаня через торрент | UTorrent

    % Раздел Тема Автор DL S | L
    TNT serials [ 58.65 GB ] СашаТаня / Сезон: 1-9 / Серии: 1-200 из 200 [2013-2019 WEB-DLRip] bober100 Скачать
    1 | 0
    TNT serials [ 6.31 GB ] СашаТаня / Сезон: 10 / Серии: 1-22 из 22 [2021 WEBRip-AVC] bober100 Скачать
    2 | 0
    TNT serials [ 22.33 GB ] СашаТаня / Сезон: 10 / Серии: 1-22 из 22 [2021 HDTV 1080i] bober100 Скачать
    1 | 0
    TNT serials [ 6.45 GB ] СашаТаня / Сезон: 10 / Серии: 1-22 из 22 [2021 WEBRip] bober100 Скачать
    2 | 0
    TNT serials [ 11.2 GB ] СашаТаня / Сезон: 10 / Серии: 1-22 из 22 [2021 WEBRip 720p] bober100 Скачать
    1 | 0
    TNT serials [ 16.46 GB ] СашаТаня / Сезон: 10 / Серии: 1-22 из 22 [2021 WEBRip 1080p] bober100 Скачать
    1 | 0
    TNT serials [ 6.68 GB ] СашаТаня / Сезон: 10 / Серии: 1-22 из 22 [2021 SATRip] bober100 Скачать
    1 | 0

    28-11-2019 20:33  

    Отключить всю рекламу на сайте

      Дорогой пользователь! Огромная просьба, поблагодарите релизера, оцените раздачу и оставьте свои комментарий, если Вы скачали СашаТаня через торрент бесплатно! Внесите свою лепту в развитие PiratBit!
      Комментировать посты могут только пользователи прошедшие не сложную регистрацию
      Показать сообщения:    

      СашаТаня через торрент
      Скачать бесплатно СашаТаня
      СашаТаня скачать торрент
      СашаТаня смотреть онлайн
      Cкачать фильм СашаТаня бесплатно
      СашаТаня скачать торрент в хорошем качестве
      СашаТаня смотреть онлайн бесплатно в хорошем качестве


      Вы не можете начинать темы
      Вы не можете отвечать на сообщения
      Вы не можете редактировать свои сообщения
      Вы не можете удалять свои сообщения
      Вы не можете голосовать в опросах
      Вы не можете прикреплять файлы к сообщениям
      Вы можете скачивать файлы