1 сезон

3 сезон

iTunes

1

iTunes

DUB Netflix

iTunes

13

1 сезон

RePack

30

Deluxe

pack

Легкие деньги

ВАЖНО

ИГРА 18+

pack

RePack

MK11

RePack

jed

RePack

fifa19

RePack

RDR2

RePack

NEED FOR SPEED™ PAYBACK

4 сезон

9 сезон

Бесстыжие 9 сезон

Все сериалы

все сериалы на PB.wtf

RePack

FAR CRY 5

Anonymous, добрый день, мы не успеваем до 1 числа собрать деньги на оплату серверов, помогите нам пожалуйста в это трудное время. В качестве благодарности мы отключим Вам всю рекламу на сайте (укажите свой ник в строку Ваше имя)!

×
  
Magnet ссылка

СашаТаня (Новогодняя серия) (Михаил Старчак) [2017, Комедия, WEB-DL 720p] piratbit.org

СашаТаня через торрент piratbit.org

Размер: 541 MB | Добавлен: 3 года 5 мес. назад | Торрент скачан:116 раз
Скачать  

28-12-2017 21:02 СашаТаня Скачать торрент  

СашаТаня (Новогодняя серия)Год выпуска: 2017
Страна: Россия
Жанр: Комедия
Продолжительность: x ~ 00:24:00
Субтитры: отсутствуют

Режиссер: Михаил Старчак

rating

В ролях:

Андрей Гайдулян, Валентина Рубцова, Алексей Климушкин, Елена Бирюкова, Татьяна Орлова, Андрей Лебедев, Ксения Хаирова, Олег Новиков, Сергей Рудзевич, Сергей Мурзин, Андрей Свиридов, Павел Кассинский, Виталий Гогунский, Арарат Кещян, Ёлка, Алексей Гаврилов, Лариса Баранова, Алина Кизиярова-Ланина, Екатерина Шукшина, Владимир Епифанцев

Описание:

Сериал про молодую семью Сергеевых. После окончания института Саша и Таня вместе со своим маленьким сыном Алёшкой решили пожить самостоятельно и сняли квартиру в Южном Бутово. Райончик конечно не из лучших, но зато и цены на жилье тут доступные, ведь Саша не собирается пользоваться миллиардами своего папы. Но Сильвестр Андреевич не собирается так просто отставать от молодых и тем более от своего внука. Поэтому он поселился по соседству, только в просторной и роскошной квартире.

Качество: WEB-DL 720p
Формат: MKV

Видео: MPEG-4 AVC, ~ 3600 Кбит/с, 1280x720
Аудио: AC3, 2 ch, 192 Кбит/с
скриншот  скриншот  скриншот  

Общее
Уникальный идентификатор : 250940608887396432798413934380507323984 (0xBCC9673E235252639F6756589A2DDE50)
Полное имя : D:\СашаТаня. Новогодняя серия (2017.12.28)_720.mkv
Формат : Matroska
Версия формата : Version 4 / Version 2
Размер файла : 541 Мбайт
Продолжительность : 19 м. 57 с.
Общий поток : 3790 Кбит/сек
Название фильма : СашаТаня. Новогодняя серия (2017.12.28)_720_nnm-club.name
Дата кодирования : UTC 2017-12-28 18:13:55
Программа кодирования : mkvmerge v18.0.0 ('Apricity') 64-bit
Библиотека кодирования : libebml v1.3.5 + libmatroska v1.4.8
Attachments : nnm-club.name.png

Видео
Идентификатор : 1
Формат : AVC
Формат/Информация : Advanced Video Codec
Профиль формата : High@L3.1
Параметр CABAC формата : Да
Параметр ReFrames формата : 1 кадр
Параметр GOP формата : M=1, N=12
Идентификатор кодека : V_MPEG4/ISO/AVC
Продолжительность : 19 м. 57 с.
Битрейт : 3595 Кбит/сек
Ширина : 1280 пикселей
Высота : 720 пикселей
Соотношение сторон : 16:9
Режим частоты кадров : Постоянный
Частота кадров : 25,000 кадров/сек
Стандарт вещания : Component
Цветовое пространство : YUV
Субдискретизация насыщенности : 4:2:0
Битовая глубина : 8 бит
Тип развёртки : Прогрессивная
Бит/(Пиксели*Кадры) : 0.156
Размер потока : 513 Мбайт (95%)
Язык : English
Default : Да
Forced : Нет
Цветовой диапазон : Limited

Аудио
Идентификатор : 2
Формат : AC-3
Формат/Информация : Audio Coding 3
Расширение режима : CM (complete main)
Параметр Endianness формата : Big
Идентификатор кодека : A_AC3
Продолжительность : 19 м. 57 с.
Вид битрейта : Постоянный
Битрейт : 192 Кбит/сек
Каналы : 2 канала
Расположение каналов : Front: L R
Частота : 44,1 КГц
Частота кадров : 28,711 кадров/сек (1536 spf)
Метод сжатия : С потерями
Размер потока : 27,4 Мбайт (5%)
Default : Да
Forced : Нет
piratbit.org



Скачать СашаТаня через торрент https://d.radikal.ru/d03/1712/c0/dd395f4d8dc2.jpg Скачать фильм СашаТаня через торрент бесплантно в хорошем качестве Описание: Сериал про молодую семью Сергеевых. После окончания института Саша и Таня вместе со своим маленьким сыном Алёшкой решили пожить ... 10 10 4
Торрент: Зарегистрирован [2017-12-28 21:02] · скачан: 116 раз
Статус: √ проверено
Размер: 541 MB
Как cкачать? Как скачать СашаТаня через торрент | UTorrent

% Раздел Тема Автор DL S | L
TNT serials [ 58.65 GB ] СашаТаня / Сезон: 1-9 / Серии: 1-200 из 200 [2013-2019 WEB-DLRip] bober100 Скачать
1 | 1
TNT serials [ 6.31 GB ] СашаТаня / Сезон: 10 / Серии: 1-22 из 22 [2021 WEBRip-AVC] bober100 Скачать
1 | 0
TNT serials [ 22.33 GB ] СашаТаня / Сезон: 10 / Серии: 1-22 из 22 [2021 HDTV 1080i] bober100 Скачать
1 | 0
TNT serials [ 6.45 GB ] СашаТаня / Сезон: 10 / Серии: 1-22 из 22 [2021 WEBRip] bober100 Скачать
1 | 0
TNT serials [ 11.2 GB ] СашаТаня / Сезон: 10 / Серии: 1-22 из 22 [2021 WEBRip 720p] bober100 Скачать
1 | 0
TNT serials [ 16.46 GB ] СашаТаня / Сезон: 10 / Серии: 1-22 из 22 [2021 WEBRip 1080p] bober100 Скачать
1 | 0
TNT serials [ 6.68 GB ] СашаТаня / Сезон: 10 / Серии: 1-22 из 22 [2021 SATRip] bober100 Скачать
1 | 0

28-11-2019 20:33  

Отключить всю рекламу на сайте

    Дорогой пользователь! Огромная просьба, поблагодарите релизера, оцените раздачу и оставьте свои комментарий, если Вы скачали СашаТаня через торрент бесплатно! Внесите свою лепту в развитие PiratBit!
    Комментировать посты могут только пользователи прошедшие не сложную регистрацию
    Показать сообщения:    

    СашаТаня через торрент
    Скачать бесплатно СашаТаня
    СашаТаня скачать торрент
    СашаТаня смотреть онлайн
    Cкачать фильм СашаТаня бесплатно
    СашаТаня скачать торрент в хорошем качестве
    СашаТаня смотреть онлайн бесплатно в хорошем качестве


    Вы не можете начинать темы
    Вы не можете отвечать на сообщения
    Вы не можете редактировать свои сообщения
    Вы не можете удалять свои сообщения
    Вы не можете голосовать в опросах
    Вы не можете прикреплять файлы к сообщениям
    Вы можете скачивать файлы