Доктор Стрэндж

Лицензия

Добыча

Дубляж

Дом дракона

1 сезон

Тор

Дубляж

В эфире

Дубляж

Там, где раки поют

MVO

Властелин колец

1 сезон

Ultimate

pack

Рекомендуем

30

Пиратка

ВАЖНО

ВАЖНО

Ghostwire

Пиратка

jed

RePack

nioh2

RePack

RDR2

RePack

NEED FOR SPEED™ PAYBACK

RePack

скачать торрент

Кинопоиск HD

Острые козырьки 6 сезон

6 сезон

FAR CRY 6

RePack

скачать торрент

Лицензия

скачать торрент

MVO

1

1 сезон

скачать торрент

1 сезон

скачать торрент

Лицензия

  

Забивание камнями Сорайи М. / The Stoning of Soraya M. (Сайрус Наурастех) [2008, драма, BDRip 720p ] VO (профессиональный), 2 x VO

Забивание камнями Сорайи М. через торрент piratbit.org

Размер: 5.28 GB | Добавлен: 4 года 10 мес. назад | Торрент скачан:42 раза
Смотреть онлайн | Скачать   

02-01-2018 07:35 Забивание камнями Сорайи М. Скачать торрент  

Название: Забивание камнями Сорайи М.
Оригинальное название: The Stoning of Soraya M.
Год выпуска: 2008
Страна: США
Жанр: драма
Продолжительность: 01:54:24
Перевод: профессиональный одноголосый, любительский одноголосый

Режиссер: Сайрус Наурастех
В ролях: Шохре Агдашлу, Можан Марно, Джеймс Кэвизел, Навид Негабан, Али Порташ, Дэвид Диаан, Парвиз Сайяд, Вида Гахремани, Вачик Мангассариан, Бита Шейбани, Нур Аль Тахер, Халид Кхан, Фэй Ян, Салти Хасан, Лайла Кутуб, Абдулла Шахин, Арас Раффи, Юсеф Швейхат, Прасанна Пуванараджа, Яхья Хуссейн, Сахар Бибиян

Описание: У журналиста, работающего в Иране, ломается машина, и он просит помощи в местной деревне. Но помощь нужна не ему одному. Здесь он встречает Захру, которая рассказывает свою душераздирающую историю. Историю, трагически завершившуюся только две недели назад. Историю своей племянницы Сорайи, жившей под гнётом мужа. Решив, что овдовев у него будет больше шансов пробраться во Влacть, он, в соответствии с местным мусульманским правом, обвинил свою жену в прелюбодеянии. Суд приговорил Сорайю к забиванию камнями. Захра просит журналиста рассказать её историю миру... Сценарий фильма является адаптацией одноимённого романа франко-иранского журналиста Фрейдона Саебджана (1994), написанного, в свою очередь, про реальную историю.



Качество: BDRip 720p
Формат: MKV
Видео: MPEG-4 AVC, 4811 Кбит/с, 1280x544
Аудио 1: русский, AC3, 448 kbps, 6 ch, 48 kHz [профессиональный одноголосый, Александр Дасевич]
Аудио 2: русский, AC3, 448 kbps, 6 ch, 48 kHz [любительский одноголосый, Acolith]
Аудио 3: русский, AC3, 448 kbps, 6 ch, 48 kHz [любительский одноголосый, Anubis]
Аудио 4: персидский, AC3, 448 kbps, 6 ch, 48 kHz [оригинал]
Субтитры 1: русские
Субтитры 2: английские
Неименованные главы/чаптеры.
Общее
Уникальный идентификатор : 206952581823660502469691556916878980189 (0x9BB19E109056135DA57B79A2787D345D)
Полное имя : D:\Video\Сорайя М.2008.BDRip.720p by msltel.mkv
Формат : Matroska
Версия формата : Version 4 / Version 2
Размер файла : 5,28 Гбайт
Продолжительность : 1 ч. 54 м.
Общий поток : 6603 Кбит/сек
Название фильма : Rip by msltel
Дата кодирования : UTC 2017-12-31 10:02:10
Программа кодирования : mkvmerge v8.2.0 ('World of Adventure') 64bit
Библиотека кодирования : libebml v1.3.1 + libmatroska v1.4.2

Видео
Идентификатор : 1
Формат : AVC
Формат/Информация : Advanced Video Codec
Профиль формата : High@L4.1
Настройки формата : CABAC / 9 Ref Frames
Параметр CABAC формата : Да
Параметр RefFrames формата : 9 кадров
Идентификатор кодека : V_MPEG4/ISO/AVC
Продолжительность : 1 ч. 54 м.
Битрейт : 4811 Кбит/сек
Ширина : 1280 пикселей
Высота : 544 пикселя
Соотношение сторон : 2,35:1
Режим частоты кадров : Постоянный
Частота кадров : 23,976 (24000/1001) кадра/сек
Цветовое пространство : YUV
Субдискретизация насыщенности : 4:2:0
Битовая глубина : 8 бит
Тип развёртки : Прогрессивная
Бит/(Пиксели*Кадры) : 0.288
Размер потока : 3,84 Гбайт (73%)
Библиотека кодирования : x264 core 146 r2538 121396c
Настройки программы : cabac=1 / ref=9 / deblock=1:-3:-2 / analyse=0x3:0x113 / me=umh / subme=11 / psy=1 / psy_rd=1.00:0.15 / mixed_ref=1 / me_range=32 / chroma_me=1 / trellis=2 / 8x8dct=1 / cqm=0 / deadzone=21,11 / fast_pskip=0 / chroma_qp_offset=-3 / threads=6 / lookahead_threads=1 / sliced_threads=0 / nr=0 / decimate=1 / interlaced=0 / bluray_compat=0 / constrained_intra=0 / bframes=8 / b_pyramid=2 / b_adapt=2 / b_bias=0 / direct=1 / weightb=1 / open_gop=0 / weightp=2 / keyint=230 / keyint_min=23 / scenecut=40 / intra_refresh=0 / rc_lookahead=40 / rc=crf / mbtree=0 / crf=16.0 / qcomp=0.60 / qpmin=0 / qpmax=69 / qpstep=4 / vbv_maxrate=62500 / vbv_bufsize=78125 / crf_max=0.0 / nal_hrd=none / filler=0 / ip_ratio=1.40 / pb_ratio=1.30 / aq=1:1.00
Язык : English
Default : Да
Forced : Нет

Аудио #1
Идентификатор : 2
Формат : AC-3
Формат/Информация : Audio Coding 3
Идентификатор кодека : A_AC3
Продолжительность : 1 ч. 54 м.
Вид битрейта : Постоянный
Битрейт : 448 Кбит/сек
Каналы : 6 каналов
Расположение каналов : Front: L C R, Side: L R, LFE
Частота : 48,0 КГц
Частота кадров : 31,250 кадров/сек (1536 SPF)
Битовая глубина : 16 бит
Метод сжатия : С потерями
Размер потока : 366 Мбайт (7%)
Заголовок : Александр Дасевич
Язык : Russian
ServiceKind/String : Complete Main
Default : Да
Forced : Нет

Аудио #2
Идентификатор : 3
Формат : AC-3
Формат/Информация : Audio Coding 3
Идентификатор кодека : A_AC3
Продолжительность : 1 ч. 54 м.
Вид битрейта : Постоянный
Битрейт : 448 Кбит/сек
Каналы : 6 каналов
Расположение каналов : Front: L C R, Side: L R, LFE
Частота : 48,0 КГц
Частота кадров : 31,250 кадров/сек (1536 SPF)
Битовая глубина : 16 бит
Метод сжатия : С потерями
Размер потока : 366 Мбайт (7%)
Заголовок : Acolith
Язык : Russian
ServiceKind/String : Complete Main
Default : Нет
Forced : Нет

Аудио #3
Идентификатор : 4
Формат : AC-3
Формат/Информация : Audio Coding 3
Идентификатор кодека : A_AC3
Продолжительность : 1 ч. 54 м.
Вид битрейта : Постоянный
Битрейт : 448 Кбит/сек
Каналы : 6 каналов
Расположение каналов : Front: L C R, Side: L R, LFE
Частота : 48,0 КГц
Частота кадров : 31,250 кадров/сек (1536 SPF)
Битовая глубина : 16 бит
Метод сжатия : С потерями
Размер потока : 366 Мбайт (7%)
Заголовок : Anubis
Язык : Russian
ServiceKind/String : Complete Main
Default : Нет
Forced : Нет

Аудио #4
Идентификатор : 5
Формат : AC-3
Формат/Информация : Audio Coding 3
Идентификатор кодека : A_AC3
Продолжительность : 1 ч. 54 м.
Вид битрейта : Постоянный
Битрейт : 448 Кбит/сек
Каналы : 6 каналов
Расположение каналов : Front: L C R, Side: L R, LFE
Частота : 48,0 КГц
Частота кадров : 31,250 кадров/сек (1536 SPF)
Битовая глубина : 16 бит
Метод сжатия : С потерями
Размер потока : 366 Мбайт (7%)
Заголовок : original
Язык : Persian
ServiceKind/String : Complete Main
Default : Нет
Forced : Нет

Текст #1
Идентификатор : 6
Формат : UTF-8
Идентификатор кодека : S_TEXT/UTF8
Идентификатор кодека/Информация : UTF-8 Plain Text
Продолжительность : 1 ч. 50 м.
Битрейт : 59 бит/сек
ElementCount : 1004
Размер потока : 48,4 Кбайт (0%)
Заголовок : русские
Язык : Russian
Default : Нет
Forced : Нет

Текст #2
Идентификатор : 7
Формат : UTF-8
Идентификатор кодека : S_TEXT/UTF8
Идентификатор кодека/Информация : UTF-8 Plain Text
Продолжительность : 1 ч. 36 м.
Битрейт : 1 бит/сек
ElementCount : 54
Размер потока : 1,32 Кбайт (0%)
Заголовок : английские
Язык : English
Default : Нет
Forced : Нет

Меню
00:00:00.000 : en:Chapter 1
00:09:53.092 : en:Chapter 2
00:15:21.921 : en:Chapter 3
00:23:10.388 : en:Chapter 4
00:31:49.407 : en:Chapter 5
00:41:35.492 : en:Chapter 6
00:49:13.449 : en:Chapter 7
00:56:04.861 : en:Chapter 8
01:04:36.372 : en:Chapter 9
01:10:32.228 : en:Chapter 10
01:18:07.682 : en:Chapter 11
01:22:26.942 : en:Chapter 12
01:30:07.902 : en:Chapter 13
01:39:50.984 : en:Chapter 14
01:43:58.732 : en:Chapter 15
01:51:11.164 : en:Chapter 16
01:54:20.436 : en:Chapter 17



Скачать Забивание камнями Сорайи М. через торрент https://d.radikal.ru/d13/1801/3a/d73fd338bcbf.png Скачать, смотреть онлайн Забивание камнями Сорайи М. бесплантно в хорошем качестве Описание: У журналиста, работающего в Иране, ломается машина, и он просит помощи в местной деревне. Но помощь нужна не ему одному. Здесь он ... 9.8 10 4
Info! Золотая раздача, скачанное не засчитывается.
Торрент: Зарегистрирован [2018-01-02 07:35] · скачан: 42 раз
Статус: √ проверено
Размер: 5.28 GB
Как cкачать? Как скачать Забивание камнями Сорайи М. через торрент | UTorrent

% Раздел Тема Автор DL S | L
Фильмы [HD 720p, 1080p] (Звук Cam, VO, DVO) [ 11.41 GB ] Забивание камнями Сорайи М. / The Stoning of Soraya M. | | 1080p msltel Скачать
1 | 1

28-11-2019 20:33  


Отключить вcю реклaмy на сайте, в т.ч. и в плеере онлайн просмотра!

04-01-2018 05:12 Забивание камнями Сорайи М. Скачать торрент  




04-01-2018 13:11 Забивание камнями Сорайи М. Скачать торрент  

Муть



17-01-2018 10:58 Забивание камнями Сорайи М. Скачать торрент  

Фильм очень даже не плох, много драматизма и пугает



    Дорогой пользователь! Огромная просьба, поблагодарите релизера, оцените раздачу и оставьте свои комментарий, если Вы скачали Забивание камнями Сорайи М. через торрент бесплатно!!
    Комментировать посты могут только пользователи прошедшие не сложную регистрацию
    Показать сообщения:    


    Забивание камнями Сорайи М. через торрент
    Скачать бесплатно Забивание камнями Сорайи М.
    Забивание камнями Сорайи М. скачать торрент
    Забивание камнями Сорайи М. смотреть онлайн
    Cкачать фильм Забивание камнями Сорайи М. бесплатно
    Забивание камнями Сорайи М. скачать торрент в хорошем качестве
    Забивание камнями Сорайи М. смотреть онлайн бесплатно в хорошем качестве
    Вы не можете начинать темы
    Вы не можете отвечать на сообщения
    Вы не можете редактировать свои сообщения
    Вы не можете удалять свои сообщения
    Вы не можете голосовать в опросах
    Вы не можете прикреплять файлы к сообщениям
    Вы можете скачивать файлы
    Забивание камнями Сорайи М. / The Stoning of Soraya M. [2008, драма, BDRip 720p ] VO , 2 x VO смотреть онлайн, скачать торрент picoco.icu