Достать ножи: Стеклянная луковица

MVO

Добыча

Дубляж

Уэнсдэй

1 сезон

Тор

Дубляж

13 клиническая

1 сезон

Жестокая ночь

MVO

Одни из нас

1 сезон

Deluxe

pack

Рекомендуем

30

Пиратка

ВАЖНО

ВАЖНО

Ghostwire

Пиратка

jed

RePack

nioh2

RePack

RDR2

RePack

NEED FOR SPEED™ PAYBACK

RePack

скачать торрент

Кинопоиск HD

Острые козырьки 6 сезон

6 сезон

FAR CRY 6

RePack

скачать торрент

Лицензия

скачать торрент

MVO

1

1 сезон

скачать торрент

1 сезон

скачать торрент

Лицензия

  

Хижина в лесу / The Cabin in the Woods (Дрю Годдард) [2012, Ужасы, триллер, UHD BDRemux 2160p] Дубляж+VO+5xAVO

Хижина в лесу через торрент piratbit.org

Размер: 73.53 GB | Добавлен: 5 лет 1 мес. назад | Торрент скачан:40 раз
Смотреть онлайн | Скачать | Поддержите нас   

02-01-2018 11:08 Хижина в лесу Скачать торрент  

Хижина в лесу / The Cabin in the WoodsГод выпуска: 2012
Страна: США
Жанр: Ужасы, триллер
Продолжительность: 01:35:03
Перевод: Дубляж, авторский, любительский одноголосый
Субтитры: Русские, английские

Режиссер: Дрю Годдард

rating

В ролях:

Кристен Коннолли, Крис Хемсворт, Анна Хатчисон, Фрэн Кренц, Джесси Уильямс, Брэдли Уитфорд, Ричард Дженкинс, Сигурни Уивер, Брайан Дж. Уайт, Эми Акер, Том Ленк, Дэн Пэйн, Джоделль Ферланд

Описание:

Группе друзей, молодым клеркам, предстоит провести ночь в лесу в стенах причудливого дома. За закрытыми дверями происходит что-то странное и ужасное. Молодые люди даже не успевают понять, что именно им угрожает, но единственное, что они знают — что время быстро уходит.

Качество: UHD BDRemux 2160p
Формат: MKV
Видео кодек: HEVC
Аудио кодек: DTS

Видео: MPEG-H HEVC Video / 72.8 Mbps / 3840x2160p / 23.976 fps / 16:9 / Main 10 Profile 5.1 High / 4:2:0 / 10 bits / HDR / BT.2020
Аудио#1: Russian DTS-HD Master Audio / 7.1 / 48 kHz / 2707 kbps / 16-bit (DTS Core: 5.1 / 48 kHz / 1509 kbps / 16-bit) |Дубляж, Blu-Ray|
Аудио#2: Russian DTS-HD Master Audio / 7.1 / 48 kHz / 5183 kbps / 24-bit (DTS Core: 5.1 / 48 kHz / 1509 kbps / 24-bit) |А. Гаврилов|
Аудио#3: Russian DTS-HD Master Audio / 7.1 / 48 kHz / 5189 kbps / 24-bit (DTS Core: 5.1 / 48 kHz / 1509 kbps / 24-bit) |Ю. Немахов|
Аудио#4: Russian DTS-HD Master Audio / 7.1 / 48 kHz / 5187 kbps / 24-bit (DTS Core: 5.1 / 48 kHz / 1509 kbps / 24-bit) |А. Карповский|
Аудио#5: Russian DTS-HD Master Audio / 7.1 / 48 kHz / 5178 kbps / 24-bit (DTS Core: 5.1 / 48 kHz / 1509 kbps / 24-bit) |zamez|
Аудио#6: Russian DTS-HD Master Audio / 7.1 / 48 kHz / 5179 kbps / 24-bit (DTS Core: 5.1 / 48 kHz / 1509 kbps / 24-bit) |В. Назаров|
Аудио#7: Russian DTS-HD Master Audio / 7.1 / 48 kHz / 5175 kbps / 24-bit (DTS Core: 5.1 / 48 kHz / 1509 kbps / 24-bit) |А. Матвеев|
Аудио#8: English DTS-HD Master Audio / 7.1 / 48 kHz / 4160 kbps / 24-bit (DTS Core: 5.1 / 48 kHz / 1509 kbps / 24-bit) |original|

скриншот  скриншот  скриншот  скриншот  

Общее
Уникальный идентификатор : 218950078979787508688566268213414009245 (0xA4B84058090A6B8F7AA3D0F4E963199D)
Полное имя : G:\HD\Хижина в лесу.2012.UHD.Blu-Ray.Remux.2160p.mkv
Формат : Matroska
Версия формата : Version 4 / Version 2
Размер файла : 73,5 Гбайт
Продолжительность : 1 ч. 35 м.
Общий поток : 111 Мбит/сек
Дата кодирования : UTC 2017-12-20 17:34:37
Программа кодирования : mkvmerge v19.0.0 ('Brave Captain') 64-bit
Библиотека кодирования : libebml v1.3.5 + libmatroska v1.4.8
Attachments : poster.jpg

Видео
Идентификатор : 1
Формат : HEVC
Формат/Информация : High Efficiency Video Coding
Профиль формата : Main 10@L5.1@High
Идентификатор кодека : V_MPEGH/ISO/HEVC
Продолжительность : 1 ч. 35 м.
Битрейт : 72,8 Мбит/сек
Ширина : 3840 пикселей
Высота : 2160 пикселей
Соотношение сторон : 16:9
Режим частоты кадров : Постоянный
Частота кадров : 23,976 (24000/1001) кадра/сек
Цветовое пространство : YUV
Субдискретизация насыщенности : 4:2:0 (Type 2)
Битовая глубина : 10 бит
Бит/(Пиксели*Кадры) : 0.366
Размер потока : 48,3 Гбайт (66%)
Язык : English
Default : Да
Forced : Нет
Цветовой диапазон : Limited
Основные цвета : BT.2020
Характеристики трансфера : PQ
Коэффициенты матрицы : BT.2020 non-constant
MasteringDisplay_ColorPrimaries : R: x=0.680000 y=0.320000, G: x=0.265000 y=0.690000, B: x=0.150000 y=0.060000, White point: x=0.312700 y=0.329000
MasteringDisplay_Luminance : min: 0.0050 cd/m2, max: 1000.0000 cd/m2
MaxCLL : 1000 cd/m2
MaxFALL : 239 cd/m2

Аудио #1
Идентификатор : 2
Формат : DTS
Формат/Информация : Digital Theater Systems
Профиль формата : MA / Core
Идентификатор кодека : A_DTS
Продолжительность : 1 ч. 35 м.
Вид битрейта : Переменный / Постоянный
Битрейт : 2707 Кбит/сек / 1509 Кбит/сек
Каналы : 8 каналов / 6 каналов
Расположение каналов : Front: L C R, Side: L R, Back: L R, LFE / Front: L C R, Side: L R, LFE
Частота : 48,0 КГц
Частота кадров : 93,750 кадра/сек (512 SPF)
Битовая глубина : 16 бит
Метод сжатия : Без потерь / Lossy
Размер потока : 1,80 Гбайт (2%)
Заголовок : Дубляж, Blu-Ray
Язык : Russian
Default : Да
Forced : Нет

Аудио #2
Идентификатор : 3
Формат : DTS
Формат/Информация : Digital Theater Systems
Профиль формата : MA / Core
Идентификатор кодека : A_DTS
Продолжительность : 1 ч. 35 м.
Вид битрейта : Переменный / Постоянный
Битрейт : 5183 Кбит/сек / 1509 Кбит/сек
Каналы : 8 каналов / 6 каналов
Расположение каналов : Front: L C R, Side: L R, Back: L R, LFE / Front: L C R, Side: L R, LFE
Частота : 48,0 КГц
Частота кадров : 93,750 кадра/сек (512 SPF)
Битовая глубина : 24 бит
Метод сжатия : Без потерь / Lossy
Размер потока : 3,44 Гбайт (5%)
Заголовок : А. Гаврилов
Язык : Russian
Default : Нет
Forced : Нет

Аудио #3
Идентификатор : 4
Формат : DTS
Формат/Информация : Digital Theater Systems
Профиль формата : MA / Core
Идентификатор кодека : A_DTS
Продолжительность : 1 ч. 35 м.
Вид битрейта : Переменный / Постоянный
Битрейт : 5189 Кбит/сек / 1509 Кбит/сек
Каналы : 8 каналов / 6 каналов
Расположение каналов : Front: L C R, Side: L R, Back: L R, LFE / Front: L C R, Side: L R, LFE
Частота : 48,0 КГц
Частота кадров : 93,750 кадра/сек (512 SPF)
Битовая глубина : 24 бит
Метод сжатия : Без потерь / Lossy
Размер потока : 3,45 Гбайт (5%)
Заголовок : Ю. Немахов
Язык : Russian
Default : Нет
Forced : Нет

Аудио #4
Идентификатор : 5
Формат : DTS
Формат/Информация : Digital Theater Systems
Профиль формата : MA / Core
Идентификатор кодека : A_DTS
Продолжительность : 1 ч. 35 м.
Вид битрейта : Переменный / Постоянный
Битрейт : 5187 Кбит/сек / 1509 Кбит/сек
Каналы : 8 каналов / 6 каналов
Расположение каналов : Front: L C R, Side: L R, Back: L R, LFE / Front: L C R, Side: L R, LFE
Частота : 48,0 КГц
Частота кадров : 93,750 кадра/сек (512 SPF)
Битовая глубина : 24 бит
Метод сжатия : Без потерь / Lossy
Размер потока : 3,44 Гбайт (5%)
Заголовок : А. Карповский
Язык : Russian
Default : Нет
Forced : Нет

Аудио #5
Идентификатор : 6
Формат : DTS
Формат/Информация : Digital Theater Systems
Профиль формата : MA / Core
Идентификатор кодека : A_DTS
Продолжительность : 1 ч. 35 м.
Вид битрейта : Переменный / Постоянный
Битрейт : 5178 Кбит/сек / 1509 Кбит/сек
Каналы : 8 каналов / 6 каналов
Расположение каналов : Front: L C R, Side: L R, Back: L R, LFE / Front: L C R, Side: L R, LFE
Частота : 48,0 КГц
Частота кадров : 93,750 кадра/сек (512 SPF)
Битовая глубина : 24 бит
Метод сжатия : Без потерь / Lossy
Размер потока : 3,44 Гбайт (5%)
Заголовок : zamez
Язык : Russian
Default : Нет
Forced : Нет

Аудио #6
Идентификатор : 7
Формат : DTS
Формат/Информация : Digital Theater Systems
Профиль формата : MA / Core
Идентификатор кодека : A_DTS
Продолжительность : 1 ч. 35 м.
Вид битрейта : Переменный / Постоянный
Битрейт : 5179 Кбит/сек / 1509 Кбит/сек
Каналы : 8 каналов / 6 каналов
Расположение каналов : Front: L C R, Side: L R, Back: L R, LFE / Front: L C R, Side: L R, LFE
Частота : 48,0 КГц
Частота кадров : 93,750 кадра/сек (512 SPF)
Битовая глубина : 24 бит
Метод сжатия : Без потерь / Lossy
Размер потока : 3,44 Гбайт (5%)
Заголовок : В. Назаров
Язык : Russian
Default : Нет
Forced : Нет

Аудио #7
Идентификатор : 8
Формат : DTS
Формат/Информация : Digital Theater Systems
Профиль формата : MA / Core
Идентификатор кодека : A_DTS
Продолжительность : 1 ч. 35 м.
Вид битрейта : Переменный / Постоянный
Битрейт : 5175 Кбит/сек / 1509 Кбит/сек
Каналы : 8 каналов / 6 каналов
Расположение каналов : Front: L C R, Side: L R, Back: L R, LFE / Front: L C R, Side: L R, LFE
Частота : 48,0 КГц
Частота кадров : 93,750 кадра/сек (512 SPF)
Битовая глубина : 24 бит
Метод сжатия : Без потерь / Lossy
Размер потока : 3,44 Гбайт (5%)
Заголовок : А. Матвеев
Язык : Russian
Default : Нет
Forced : Нет

Аудио #8
Идентификатор : 9
Формат : DTS
Формат/Информация : Digital Theater Systems
Профиль формата : MA / Core
Идентификатор кодека : A_DTS
Продолжительность : 1 ч. 35 м.
Вид битрейта : Переменный / Постоянный
Битрейт : 4160 Кбит/сек / 1509 Кбит/сек
Каналы : 8 каналов / 6 каналов
Расположение каналов : Front: L C R, Side: L R, Back: L R, LFE / Front: L C R, Side: L R, LFE
Частота : 48,0 КГц
Частота кадров : 93,750 кадра/сек (512 SPF)
Битовая глубина : 24 бит
Метод сжатия : Без потерь / Lossy
Размер потока : 2,76 Гбайт (4%)
Язык : English
Default : Нет
Forced : Нет

Текст #1
Идентификатор : 10
Формат : UTF-8
Идентификатор кодека : S_TEXT/UTF8
Идентификатор кодека/Информация : UTF-8 Plain Text
Продолжительность : 1 ч. 29 м.
Битрейт : 74 бит/сек
ElementCount : 926
Размер потока : 49,2 Кбайт (0%)
Заголовок : R5
Язык : Russian
Default : Нет
Forced : Нет

Текст #2
Идентификатор : 11
Формат : UTF-8
Идентификатор кодека : S_TEXT/UTF8
Идентификатор кодека/Информация : UTF-8 Plain Text
Продолжительность : 1 ч. 28 м.
Битрейт : 71 бит/сек
ElementCount : 1026
Размер потока : 46,4 Кбайт (0%)
Заголовок : Дэн 107miller
Язык : Russian
Default : Нет
Forced : Нет

Текст #3
Идентификатор : 12
Формат : UTF-8
Идентификатор кодека : S_TEXT/UTF8
Идентификатор кодека/Информация : UTF-8 Plain Text
Продолжительность : 1 ч. 28 м.
Битрейт : 76 бит/сек
ElementCount : 999
Размер потока : 49,8 Кбайт (0%)
Заголовок : romero007
Язык : Russian
Default : Нет
Forced : Нет

Текст #4
Идентификатор : 13
Формат : UTF-8
Идентификатор кодека : S_TEXT/UTF8
Идентификатор кодека/Информация : UTF-8 Plain Text
Продолжительность : 1 ч. 28 м.
Битрейт : 76 бит/сек
ElementCount : 987
Размер потока : 49,9 Кбайт (0%)
Заголовок : notabenoid
Язык : Russian
Default : Нет
Forced : Нет

Текст #5
Идентификатор : 14
Формат : UTF-8
Идентификатор кодека : S_TEXT/UTF8
Идентификатор кодека/Информация : UTF-8 Plain Text
Продолжительность : 1 ч. 28 м.
Битрейт : 46 бит/сек
ElementCount : 984
Размер потока : 30,2 Кбайт (0%)
Заголовок : full
Язык : English
Default : Нет
Forced : Нет

Текст #6
Идентификатор : 15
Формат : UTF-8
Идентификатор кодека : S_TEXT/UTF8
Идентификатор кодека/Информация : UTF-8 Plain Text
Продолжительность : 1 ч. 28 м.
Битрейт : 50 бит/сек
ElementCount : 1108
Размер потока : 32,6 Кбайт (0%)
Заголовок : SDH
Язык : English
Default : Нет
Forced : Нет

Меню
00:00:00.000 : en:Weekend Away
00:05:42.425 : en:Nest Is Empty
00:12:31.709 : en:The Cabin
00:18:40.077 : en:Control
00:24:22.503 : en:I Dare You
00:29:27.140 : en:Read It
00:35:02.642 : en:Acting Strange
00:41:40.164 : en:Eternal Slumber
00:46:43.759 : en:Lockdown
00:50:57.805 : en:Black Room
00:54:43.822 : en:Perfect Record
01:06:49.130 : en:Going Down
01:12:50.116 : en:Something Bigger
01:16:45.976 : en:Code Black
01:21:34.014 : en:Ritual
01:26:59.506 : en:Fun Weekend




Скачать Хижина в лесу через торрент https://pic1.kartinco.top/images/11/ka8i9.jpg Скачать, смотреть онлайн Хижина в лесу бесплантно в хорошем качестве Описание: Группе друзей, молодым клеркам, предстоит провести ночь в лесу в стенах причудливого дома. За закрытыми дверями происходит что-то ... 10 10 4
Info! Золотая раздача, скачанное не засчитывается.
Торрент: Зарегистрирован [2018-01-02 11:08] · скачан: 40 раз
Статус: √ проверено
Размер: 73.53 GB
Как cкачать? Как скачать Хижина в лесу через торрент | UTorrent

28-11-2019 20:33  


Отключить вcю реклaмy на сайте, в т.ч. и в плеере онлайн просмотра!

    Дорогой пользователь! Огромная просьба, поблагодарите релизера, оцените раздачу и оставьте свои комментарий, если Вы скачали Хижина в лесу через торрент бесплатно!!
    Комментировать посты могут только пользователи прошедшие не сложную регистрацию
    Показать сообщения:    


    Хижина в лесу через торрент
    Скачать бесплатно Хижина в лесу
    Хижина в лесу скачать торрент
    Хижина в лесу смотреть онлайн
    Cкачать фильм Хижина в лесу бесплатно
    Хижина в лесу скачать торрент в хорошем качестве
    Хижина в лесу смотреть онлайн бесплатно в хорошем качестве
    Вы не можете начинать темы
    Вы не можете отвечать на сообщения
    Вы не можете редактировать свои сообщения
    Вы не можете удалять свои сообщения
    Вы не можете голосовать в опросах
    Вы не можете прикреплять файлы к сообщениям
    Вы можете скачивать файлы
    Хижина в лесу / The Cabin in the Woods [2012, Ужасы, триллер, UHD BDRemux 2160p] Дубляж+VO+5xAVO смотреть онлайн, скачать торрент picoco.icu