2 сезон

iTunes

WEBRip

1

2 сезон

iTunes

1 сезон

1 сезон

RePack

30

Новинка

ВАЖНО

ИГРА 18+

pack

RePack

MK11
pack

Легкие деньги

RePack

jed

RePack

fifa19

RePack

RDR2

RePack

NEED FOR SPEED™ PAYBACK

4 сезон

9 сезон

Бесстыжие 9 сезон

Все сериалы

все сериалы на PB.wtf

RePack

FAR CRY 5

Anonymous, добрый вечер, мы не успеваем собрать деньги на оплату серверов за февраль, помогите нам пожалуйста в это трудное время. В качестве благодарности мы отключим Вам всю рекламу на сайте (укажите свой ник в строку Ваше имя)!

×
  
Magnet ссылка

Между нами горы / The Mountain Between Us (Хани Абу-Ассад) [2017, боевик, триллер, драма, мелодрама, приключения, BDRip 1080p] [Ukr DUB] [Line] piratbit.org

Между нами горы через торрент piratbit.org

Размер: 7.85 GB | Добавлен: 3 года 2 мес. назад | Торрент скачан:81 раз
Скачать  

03-01-2018 11:18 Между нами горы Скачать торрент  

Между нами горы / The Mountain Between Us Год выпуска: 2017
Жанр: боевик, триллер, драма, мелодрама, приключения
Выпущено: США, Chernin Entertainment, Twentieth Century Fox Film Corporation
Продолжительность: 01:51:10
Перевод: Украинский (дублированный)
Субтитры: Украинские, английские

Режиссер: Хани Абу-Ассад

В ролях: Идрис Эльба, Кейт Уинслет, Бо Бриджес, Дермот Малруни, Линда Соренсон, Винсент Гэйл, Марси Т. Хаус, Ли Мадждуб, Андрес Джозеф

О фильме: В окруженном горами аэропорте Солт-Лейк-Сити отменены все рейсы из-за непогоды. Двое случайных знакомых, Бен и Эшли, решают лететь на маленьком частном самолете. Оба они опаздывают по своим делам и сильно торопятся. К несчастью, самолет терпит крушение в горах. Пилот погибает, и два малознакомых пассажира остаются наедине друг с другом среди заснеженных вершин. Чтобы спастись, им придется совершить невозможное. В короткий срок им предстоит узнать и довериться друг другу во спасение своих жизней.



Качество: BDRip 1080p
Формат: MKV
Видео: AVC, 1920x804, 9 000 kb/s
Аудио: 48.0 KHz, AC3, 2 ch, 192 Кбит/с - Ukr DUB
Аудио: 48.0 KHz, AC3, 6 ch, 640 Кбит/с - English
Аудио: 48.0 KHz, AC3, 2 ch, 224 Кбит/с - English Commentary
Мелодрама режиссёра Хани Абу-Ассада основана на одноименном романе Чарльза Мартина и повествует о том, как люди в наше динамичное время, полностью погружаясь в работу, нередко упускают возможность остановиться и задуматься, в том ли направлении они движутся и правильных ли попутчиков выбрали для своей жизни. Майкл Фассбендер рассматривался на главную мужскую роль, но впоследствии выбыл из проекта из-за проблем с графиком.
Марго Робби была утверждена на главную женскую роль, но ушла по собственной воле после ухода Фассбендера
После ухода Майкла Фассбендера и Марго Робби на их места были приглашены Чарли Ханнэм и Розамунд Пайк, но и им не было суждено остаться в проекте. В конечном итоге они были заменены на Идриса Эльбу и Кейт Уинслет.
Изначально режиссером должен был стать Херардо Наранхо.
Премьера (мир)09.09.2017
Премьера (РФ)05.10.2017
КинопрокатДвадцатый Век Фокс СНГ
General
Unique ID : 33343338942308567209206235562939804921 (0x1915B188A86E05C42D3AC4D47E186CF9)
Complete name : F:\The Mountain Between Us (2017) BDRip 1080p [UKR_ENG] [Hurtom].mkv
Format : Matroska
Format version : Version 4 / Version 2
File size : 7.85 GiB
Duration : 1 h 51 min
Overall bit rate : 10.1 Mb/s
Encoded date : UTC 2018-01-02 12:30:53
Writing application : mkvmerge v19.0.0 ('Brave Captain') 64-bit
Writing library : libebml v1.3.5 + libmatroska v1.4.8
Cover : Yes
Attachments : cover.jpg

Video
ID : 1
Format : AVC
Format/Info : Advanced Video Codec
Format profile : High@L4.1
Format settings : CABAC / 5 Ref Frames
Format settings, CABAC : Yes
Format settings, RefFrames : 5 frames
Codec ID : V_MPEG4/ISO/AVC
Duration : 1 h 51 min
Bit rate : 9 000 kb/s
Width : 1 920 pixels
Height : 804 pixels
Display aspect ratio : 2.40:1
Frame rate mode : Constant
Frame rate : 23.976 (24000/1001) FPS
Color space : YUV
Chroma subsampling : 4:2:0
Bit depth : 8 bits
Scan type : Progressive
Bits/(Pixel*Frame) : 0.243
Stream size : 6.87 GiB (88%)
Writing library : x264 core 152 r2851+58 429492e t_mod_LoRD 8-bit@all X86_64
Encoding settings : cabac=1 / ref=5 / deblock=1:-3:-3 / analyse=0x3:0x133 / me=umh / subme=10 / psy=1 / fade_compensate=0.00 / psy_rd=1.00:0.00 / mixed_ref=1 / me_range=32 / chroma_me=1 / trellis=2 / 8x8dct=1 / cqm=0 / deadzone=21,11 / fast_pskip=0 / chroma_qp_offset=-2 / threads=12 / lookahead_threads=2 / sliced_threads=0 / nr=0 / decimate=0 / interlaced=0 / bluray_compat=0 / constrained_intra=0 / fgo=0 / bframes=8 / b_pyramid=2 / b_adapt=2 / b_bias=0 / direct=3 / weightb=1 / open_gop=0 / weightp=2 / keyint=250 / keyint_min=23 / scenecut=40 / intra_refresh=0 / rc_lookahead=75 / rc=2pass / mbtree=0 / bitrate=9000 / ratetol=1.0 / qcomp=0.60 / qpmin=0:0:0 / qpmax=69:69:69 / qpstep=4 / cplxblur=20.0 / qblur=0.5 / vbv_maxrate=50000 / vbv_bufsize=62500 / nal_hrd=none / filler=0 / ip_ratio=1.20 / pb_ratio=1.20 / aq=3:0.80 / aq-sensitivity=10.00 / aq-factor=1.00:1.00:1.00 / aq2=0 / aq3=0
Language : English
Default : Yes
Forced : No

Audio #1
ID : 2
Format : AC-3
Format/Info : Audio Coding 3
Format settings, Endianness : Big
Codec ID : A_AC3
Duration : 1 h 51 min
Bit rate mode : Constant
Bit rate : 192 kb/s
Channel(s) : 2 channels
Channel positions : Front: L R
Sampling rate : 48.0 kHz
Frame rate : 31.250 FPS (1536 SPF)
Bit depth : 16 bits
Compression mode : Lossy
Stream size : 154 MiB (2%)
Title : AC3 2.0 @ 192 kbps - DUB, Megogo
Language : Ukrainian
Service kind : Complete Main
Default : Yes
Forced : Yes

Audio #2
ID : 3
Format : AC-3
Format/Info : Audio Coding 3
Format settings, Endianness : Big
Codec ID : A_AC3
Duration : 1 h 51 min
Bit rate mode : Constant
Bit rate : 640 kb/s
Channel(s) : 6 channels
Channel positions : Front: L C R, Side: L R, LFE
Sampling rate : 48.0 kHz
Frame rate : 31.250 FPS (1536 SPF)
Bit depth : 16 bits
Compression mode : Lossy
Stream size : 512 MiB (6%)
Title : Original
Language : English
Service kind : Complete Main
Default : No
Forced : No

Audio #3
ID : 4
Format : AC-3
Format/Info : Audio Coding 3
Format settings, Endianness : Big
Codec ID : A_AC3
Duration : 1 h 51 min
Bit rate mode : Constant
Bit rate : 224 kb/s
Channel(s) : 2 channels
Channel positions : Front: L R
Sampling rate : 48.0 kHz
Frame rate : 31.250 FPS (1536 SPF)
Bit depth : 16 bits
Compression mode : Lossy
Stream size : 179 MiB (2%)
Title : Commentary
Language : English
Service kind : Complete Main
Default : No
Forced : No

Text #1
ID : 5
Format : UTF-8
Codec ID : S_TEXT/UTF8
Codec ID/Info : UTF-8 Plain Text
Title : Full
Language : Ukrainian
Default : No
Forced : No

Text #2
ID : 6
Format : UTF-8
Codec ID : S_TEXT/UTF8
Codec ID/Info : UTF-8 Plain Text
Title : Full
Language : English
Default : No
Forced : No

Text #3
ID : 7
Format : UTF-8
Codec ID : S_TEXT/UTF8
Codec ID/Info : UTF-8 Plain Text
Title : SDH
Language : English
Default : No
Forced : No

Menu
00:00:00.000 : :Chapter 01
00:02:58.595 : :Chapter 02
00:08:52.782 : :Chapter 03
00:13:15.377 : :Chapter 04
00:16:21.480 : :Chapter 05
00:21:36.253 : :Chapter 06
00:26:51.985 : :Chapter 07
00:31:53.369 : :Chapter 08
00:38:56.083 : :Chapter 09
00:43:45.372 : :Chapter 10
00:51:04.311 : :Chapter 11
00:57:28.736 : :Chapter 12
01:01:22.720 : :Chapter 13
01:04:39.417 : :Chapter 14
01:07:41.057 : :Chapter 15
01:11:06.428 : :Chapter 16
01:14:56.533 : :Chapter 17
01:19:15.125 : :Chapter 18
01:23:48.398 : :Chapter 19
01:27:52.475 : :Chapter 20
01:32:13.569 : :Chapter 21
01:35:41.652 : :Chapter 22
01:41:48.268 : :Chapter 23
01:45:22.482 : :Chapter 24
скриншот  скриншот  скриншот  
piratbit.org



Скачать Между нами горы через торрент http://i102.fastpic.ru/big/2018/0103/a0/ae229154ae0cc697327c4fbea4ece1a0.jpg Скачать фильм Между нами горы через торрент бесплантно в хорошем качестве О фильме: В окруженном горами аэропорте Солт-Лейк-Сити отменены все рейсы из-за непогоды. Двое случайных знакомых, Бен и Эшли, решают ... 10 10 2
Info! Золотая раздача, скачанное не засчитывается.
Торрент: Зарегистрирован [2018-01-03 11:18] · скачан: 81 раз
Статус: T временная
Размер: 7.85 GB
Как cкачать? Как скачать Между нами горы через торрент | UTorrent

% Раздел Тема Автор DL S | L
Фильмы [HD 720p, 1080p] (Хороший звук DUB, MVO) [ 4.8 GB ] Между нами горы / The Mountain Between Us [2017 BDRip-HEVC 1080p] 2хDUB + MVO RealOldGamer Скачать
3 | 0
Фильмы 2017 [DVDrip, WEB-DLRip, HDrip] (DUB, MVO) [ 1.95 GB ] Между нами горы / The Mountain Between Us [2017 BDRip-AVC] - ExKinoRay Enigma2010 Скачать
1 | 0
Фильмы [HD 720p, 1080p] (Хороший звук DUB, MVO) [ 6.59 GB ] Между нами горы / The Mountain Between Us [2017 BDRip 1080p] DUB [] bober100 Скачать
2 | 0
Фильмы 2017 [DVDrip, WEB-DLRip, HDrip] (DUB, MVO) [ 1.46 GB ] Между нами горы / The Mountain Between Us [2017 BDRip] - [] Twi7ter Скачать
1 | 1
Ultra HD (UHD: 2K, 4K, 8K) — видео сверхвысокой чёткости [ 30.95 GB ] Между нами горы / The Mountain Between Us [2017 UHD BDRemux 2160p] MVO [Paradox&Omskbird] + bober100 Скачать
1 | 0
Ultra HD (UHD: 2K, 4K, 8K) — видео сверхвысокой чёткости [ 31.93 GB ] Между нами горы / The Mountain Between Us [2017 UHD BDRemux 2160p] DUB + MVO sheker187 Скачать
1 | 0
Фильмы [HD 720p, 1080p] (Хороший звук DUB, MVO) [ 10.5 GB ] Между нами горы / The Mountain Between Us [2017 BDRip 1080p] MVO [Paradox&Omskbird] + bober100 Скачать
1 | 0

28-11-2019 20:33  

Отключить всю рекламу на сайте

01-02-2018 18:07 Между нами горы Скачать торрент  

посмотрел фильм, ну такое себе...как всегда долбанный хэппиэндpiratbit.org



    Дорогой пользователь! Огромная просьба, поблагодарите релизера, оцените раздачу и оставьте свои комментарий, если Вы скачали Между нами горы через торрент бесплатно! Внесите свою лепту в развитие PiratBit!
    Комментировать посты могут только пользователи прошедшие не сложную регистрацию
    Показать сообщения:    

    Между нами горы через торрент
    Скачать бесплатно Между нами горы
    Между нами горы скачать торрент
    Между нами горы смотреть онлайн
    Cкачать фильм Между нами горы бесплатно
    Между нами горы скачать торрент в хорошем качестве
    Между нами горы смотреть онлайн бесплатно в хорошем качестве


    Вы не можете начинать темы
    Вы не можете отвечать на сообщения
    Вы не можете редактировать свои сообщения
    Вы не можете удалять свои сообщения
    Вы не можете голосовать в опросах
    Вы не можете прикреплять файлы к сообщениям
    Вы можете скачивать файлы