2 сезон

iTunes

WEBRip

1

2 сезон

iTunes

1 сезон

1 сезон

RePack

30

Ultimate

ВАЖНО

ИГРА 18+

pack

RePack

MK11
pack

Легкие деньги

RePack

jed

RePack

fifa19

RePack

RDR2

RePack

NEED FOR SPEED™ PAYBACK

4 сезон

9 сезон

Бесстыжие 9 сезон

Все сериалы

все сериалы на PB.wtf

RePack

FAR CRY 5

Anonymous, добрый день, мы не успеваем собрать деньги на оплату серверов за февраль, помогите нам пожалуйста в это трудное время. В качестве благодарности мы отключим Вам всю рекламу на сайте (укажите свой ник в строку Ваше имя)!

×
  
Magnet ссылка

Уотергейт. Крушение Белого дома / Mark Felt: The Man Who Brought Down the White House (Питер Ландесман) [2017, триллер, драма, биография, история, BDRip-AVC] [Ukr DUB] [Line] piratbit.org

Уотергейт. Крушение Белого дома через торрент piratbit.org

Размер: 1.42 GB | Добавлен: 3 года 1 мес. назад | Торрент скачан:38 раз
Скачать  

10-01-2018 20:25 Уотергейт. Крушение Белого дома Скачать торрент  

Уотергейт. Крушение Белого дома / Mark Felt: The Man Who Brought Down the White House Страна: США
Производство: Riverstone Pictures, Scott Free Productions, Torridon Films, MadRiver Pictures, Endurance Media
Год выпуска: 2017
Жанр: триллер, драма, биография, история
Продолжительность: 01:42:57
Перевод: Украинский (дублированный)
Субтитры: английские

Режиссер: Питер Ландесман

В ролях: Лиам Нисон, Дайан Лэйн, Мартон Чокаш, Тони Голдуин, Айк Баринхолц, Джош Лукас, Венди МакЛендон-Кови, Кейт Уолш, Майка Монро

Описание: Фильм о главном звене самого громкого скандала ХХ века «Уотергейт», который привёл к преждевременной отставке президента Ричарда Никсона. Личность человека, передававшего прессе обличительную информацию на главу государства, долгое время была окутана тайной и установлена лишь спустя 30 лет после его собственного признания. Шокирующая невероятная история, основанная на реальных событиях, о жизни блестящего и бескомпромиссного Заместителя Начальника ФБР Марка Фелта, который пожертвовал всем — своей семьёй, своей карьерой и своей свободой, чтобы мир узнал правду...



Файл
Качество: BDRip-AVC
Формат: MKV
Видео: AVC, 1024 х 512, 23.976 fps, 1570 kbps
Звук: 48.0 kHz, AC3, 2 ch, 192 kbps - Ukr DUB
Звук: 48.0 kHz, AC3, 2 ch, 192 kbps - Eng

Релиз --
General
Unique ID : 254148408724078276022879938291825913868 (0xBF3333FC43D04FA0ACCDF5A071A4300C)
Complete name : E:\INTERNET\Mark Felt The Man Who Brought Down the White House (2017) BDRip-AVC [UKR_ENG] [Hurtom].mkv
Format : Matroska
Format version : Version 4 / Version 2
File size : 1.42 GiB
Duration : 1 h 42 min
Overall bit rate : 1 969 kb/s
Encoded date : UTC 2018-01-10 19:26:45
Writing application : mkvmerge v14.0.0 ('Flow') 64bit
Writing library : libebml v1.3.4 + libmatroska v1.4.5
Cover : Yes
Attachments : cover

Video
ID : 1
Format : AVC
Format/Info : Advanced Video Codec
Format profile : High@L4.1
Format settings : CABAC / 12 Ref Frames
Format settings, CABAC : Yes
Format settings, RefFrames : 12 frames
Codec ID : V_MPEG4/ISO/AVC
Duration : 1 h 42 min
Bit rate : 1 583 kb/s
Width : 1 024 pixels
Height : 512 pixels
Display aspect ratio : 2.000
Frame rate mode : Constant
Frame rate : 23.976 (24000/1001) FPS
Color space : YUV
Chroma subsampling : 4:2:0
Bit depth : 8 bits
Scan type : Progressive
Bits/(Pixel*Frame) : 0.126
Stream size : 1.11 GiB (79%)
Writing library : x264 core 155 r2893M b00bcaf
Encoding settings : cabac=1 / ref=12 / deblock=1:-2:-2 / analyse=0x3:0x133 / me=umh / subme=11 / psy=1 / psy_rd=1.00:0.10 / mixed_ref=1 / me_range=48 / chroma_me=1 / trellis=2 / 8x8dct=1 / cqm=0 / deadzone=21,11 / fast_pskip=0 / chroma_qp_offset=-3 / threads=9 / lookahead_threads=2 / sliced_threads=0 / nr=0 / decimate=0 / interlaced=0 / bluray_compat=0 / constrained_intra=0 / bframes=12 / b_pyramid=2 / b_adapt=2 / b_bias=0 / direct=3 / weightb=1 / open_gop=0 / weightp=2 / keyint=240 / keyint_min=23 / scenecut=40 / intra_refresh=0 / rc_lookahead=100 / rc=2pass / mbtree=0 / bitrate=1583 / ratetol=1.0 / qcomp=0.70 / qpmin=0 / qpmax=69 / qpstep=4 / cplxblur=20.0 / qblur=0.5 / vbv_maxrate=52000 / vbv_bufsize=50000 / nal_hrd=none / filler=0 / ip_ratio=1.40 / pb_ratio=1.30 / aq=2:0.80
Language : English
Default : Yes
Forced : No

Audio #1
ID : 2
Format : AC-3
Format/Info : Audio Coding 3
Format settings, Endianness : Big
Codec ID : A_AC3
Duration : 1 h 42 min
Bit rate mode : Constant
Bit rate : 192 kb/s
Channel(s) : 2 channels
Channel positions : Front: L R
Sampling rate : 48.0 kHz
Frame rate : 31.250 FPS (1536 SPF)
Bit depth : 16 bits
Compression mode : Lossy
Stream size : 141 MiB (10%)
Title : AC3 2.0 @ 192 kbps
Language : Ukrainian
Service kind : Complete Main
Default : Yes
Forced : Yes

Audio #2
ID : 3
Format : AC-3
Format/Info : Audio Coding 3
Format settings, Endianness : Big
Codec ID : A_AC3
Duration : 1 h 42 min
Bit rate mode : Constant
Bit rate : 192 kb/s
Channel(s) : 6 channels
Channel positions : Front: L C R, Side: L R, LFE
Sampling rate : 48.0 kHz
Frame rate : 31.250 FPS (1536 SPF)
Bit depth : 16 bits
Compression mode : Lossy
Stream size : 141 MiB (10%)
Title : AC3 2.0 @ 192 kbps
Language : English
Service kind : Complete Main
Default : No
Forced : No

Text
ID : 4
Format : UTF-8
Codec ID : S_TEXT/UTF8
Codec ID/Info : UTF-8 Plain Text
Language : English
Default : No
Forced : No

Menu
00:00:00.000 : :Chapter 1
00:08:38.226 : :Chapter 2
00:15:54.078 : :Chapter 3
00:21:22.823 : :Chapter 4
00:33:01.396 : :Chapter 5
00:36:17.509 : :Chapter 6
00:47:14.040 : :Chapter 7
00:56:39.271 : :Chapter 8
01:03:02.946 : :Chapter 9
01:10:16.421 : :Chapter 10
01:13:50.551 : :Chapter 11
01:17:03.828 : :Chapter 12
01:21:09.239 : :Chapter 13
01:26:26.306 : :Chapter 14
01:29:31.032 : :Chapter 15
01:35:10.580 : :Chapter 16
скриншот  скриншот  скриншот  
piratbit.org



Скачать Уотергейт. Крушение Белого дома через торрент http://i99.fastpic.ru/big/2018/0110/af/08a006480f21c78066598f193d8ad5af.jpg Скачать фильм Уотергейт. Крушение Белого дома через торрент бесплантно в хорошем качестве Описание: Фильм о главном звене самого громкого скандала ХХ века «Уотергейт», который привёл к преждевременной отставке президента Ричарда ... 10 10 1
Торрент: Зарегистрирован [2018-01-10 20:25] · скачан: 38 раз
Статус: T временная
Размер: 1.42 GB
Как cкачать? Как скачать Уотергейт. Крушение Белого дома через торрент | UTorrent

% Раздел Тема Автор DL S | L
Фильмы (Blu-ray, BD-Remux, HDDVD) [ 18.05 GB ] Уотергейт. Крушение Белого дома / Mark Felt: The Man Who Brought Down the White House [2017 биография история BD Remux 1080p] MVO [Rus Transfer] [] bober100 Скачать
1 | 0
Фильмы 2017 [DVDrip, WEB-DLRip, HDrip] (DUB, MVO) [ 2.09 GB ] Уотергейт. Крушение Белого дома / Mark Felt: The Man Who Brought Down the White House [2017 биография история HDRip многоголосый закадровый "BD RUS"] coc900 Скачать
1 | 0
Фильмы (Blu-ray, BD-Remux, HDDVD) [ 20.19 GB ] Уотергейт. Крушение Белого дома / Mark Felt: The Man Who Brought Down the White House [2017 биография история Blu-ray 1080p] MVO [Rus Transfer] [] bober100 Скачать
1 | 0
Фильмы 2017 [DVDrip, WEB-DLRip, HDrip] (DUB, MVO) [ 1.46 GB ] Уотергейт. Крушение Белого дома / Mark Felt: The Man Who Brought Down the White House [2017 биография история BDRip] MVO [] Twi7ter Скачать
1 | 0
Фильмы 2017 [DVDrip, WEB-DLRip, HDrip] (DUB, MVO) [ 1.46 GB ] Уотергейт. Крушение Белого дома / Mark Felt: The Man Who Brought Down the White House [2017 биография история BDRip] MVO [ BD RUS] bober100 Скачать
1 | 0
Фильмы [HD 720p, 1080p] (Хороший звук DUB, MVO) [ 10.32 GB ] Уотергейт. Крушение Белого дома / Mark Felt: The Man Who Brought Down the White House [2017 биография история BDRip 1080p] MVO bober100 Скачать
1 | 0
Фильмы (Blu-ray, BD-Remux, HDDVD) [ 19.71 GB ] Уотергейт. Крушение Белого дома / Mark Felt: The Man Who Brought Down the White House [2017 биография история BD Remux 1080p] MVO bober100 Скачать
1 | 0

28-11-2019 20:33  

Отключить всю рекламу на сайте

    Дорогой пользователь! Огромная просьба, поблагодарите релизера, оцените раздачу и оставьте свои комментарий, если Вы скачали Уотергейт. Крушение Белого дома через торрент бесплатно! Внесите свою лепту в развитие PiratBit!
    Комментировать посты могут только пользователи прошедшие не сложную регистрацию
    Показать сообщения:    

    Уотергейт. Крушение Белого дома через торрент
    Скачать бесплатно Уотергейт. Крушение Белого дома
    Уотергейт. Крушение Белого дома скачать торрент
    Уотергейт. Крушение Белого дома смотреть онлайн
    Cкачать фильм Уотергейт. Крушение Белого дома бесплатно
    Уотергейт. Крушение Белого дома скачать торрент в хорошем качестве
    Уотергейт. Крушение Белого дома смотреть онлайн бесплатно в хорошем качестве


    Вы не можете начинать темы
    Вы не можете отвечать на сообщения
    Вы не можете редактировать свои сообщения
    Вы не можете удалять свои сообщения
    Вы не можете голосовать в опросах
    Вы не можете прикреплять файлы к сообщениям
    Вы можете скачивать файлы