Достать ножи: Стеклянная луковица

MVO

Добыча

Дубляж

Уэнсдэй

1 сезон

Тор

Дубляж

13 клиническая

1 сезон

Жестокая ночь

MVO

Одни из нас

1 сезон

Deluxe

pack

Рекомендуем

30

Пиратка

ВАЖНО

ВАЖНО

Ghostwire

Пиратка

jed

RePack

nioh2

RePack

RDR2

RePack

NEED FOR SPEED™ PAYBACK

RePack

скачать торрент

Кинопоиск HD

Острые козырьки 6 сезон

6 сезон

FAR CRY 6

RePack

скачать торрент

Лицензия

скачать торрент

MVO

1

1 сезон

скачать торрент

1 сезон

скачать торрент

Лицензия

  

Гарри Поттер и орден Феникса / Harry Potter and the Order of the Phoenix (Дэвид Йейтс) [2007, Фэнтези, приключения, UHD BDRemux 2160p] DVO+2xAVO+Дубляж (rus, ukr)

Гарри Поттер и орден Феникса через торрент piratbit.org

Раздают: 1 [ 0 KB/s ] Качают: 2 [ 0 KB/s ]
Размер: 54.57 GB | Добавлен: 5 лет назад | Торрент скачан:361 раз
Смотреть онлайн | Скачать | Поддержите нас   

11-01-2018 06:23 Гарри Поттер и орден Феникса Скачать торрент  

Гарри Поттер и орден Феникса / Harry Potter and the Order of the Phoenix Год выпуска: 2007
Страна: США
Жанр: Фэнтези, приключения
Продолжительность: 02:18:14
Перевод: Дубляж, профессиональный двухголосый, авторский
Субтитры: русские (надписи, полные), украинские (надписи,полные), английские (полные, SDH)

Режиссер: Дэвид Йейтс

rating

В ролях:

Дэниэл Рэдклифф, Эмма Уотсон, Руперт Гринт, Джейсон Бойд, Ричард Маклин, Гарри Меллинг, Кэтрин Хантер, Майлз Джапп, Фиона Шоу, Ричард Гриффитс, Адриан Роулинз, Джеральдин Соммервиль, Роберт Паттинсон, Рэйф Файнс, Наталия Тена, Брендан Глисон, Джордж Харрис, Питер Картрайт, Бриджитт Миллар, Гэри Олдман, Марк Уильямс, Эванна Линч, Девон Мюррэй, Афшан Азад

Описание:

Экранизация одноименного романа Дж. К. Роулинг. Гарри проводит свой пятый год обучения в школе Хогвартс и обнаруживает, что многие из членов волшебного сообщества отрицают сам факт недавнего состязания юного волшебника с воплощением вселенского зла Волан-де-Мортом, делая вид, что не имеют ни малейшего представления о том, что злодей вернулся. Опасаясь, что почтенный глава Хогвартса Альбус Дамблдор распространяет лживые слухи о возвращении Волан-де-Морта, стремясь подорвать авторитет Министра Магии Корнелиуса Фаджа и в дальнейшем занять его место, Корнелиус назначает нового профессора защиты от темных искусств, который должен будет пристально следить за Дамблдором и студентами Хогвартса. Но одобренный министерством курс лекций по защитной магии профессора Долорес Амбридж оказывается на практике абсолютно бесполезным — юные волшебники просто неспособны противостоять действию темных сил, угрожающих им и всему волшебному сообществу. И тогда, по настоянию своих друзей Гермионы и Рона, Гарри берет инициативу в свои руки. Тайно встречаясь с небольшой группой студентов, называющей себя Отрядом Дамблдора, Гарри обучает их самозащите от темных сил, готовя отважных волшебников к необычной схватке, которая ждет их впереди.

Качество: UHD BDRemux 2160p
Формат: MKV

Видео: HEVC HDR, 49.1 Mбит/с, 3840x2160, 23.976 кадр/с
Аудио#1: Русский 48 kHz, AC3, 6 ch 640 Kbps - Дубляж
Аудио#2: Русский 48 kHz, AC3, 6 ch 448 Kbps - Профессиональный двухголосый (П. Гланц и И. Королёва)
Аудио#3: Русский 48 kHz, AC3, 6 ch 448 Kbps - Авторский (С. Рябов)
Аудио#4: Русский 48 kHz, AC3, 6 ch 448 Kbps - Авторский (А. Медведев)
Аудио#5: Украинский 48 kHz, AC3, 6 ch 640 Kbps - Дубляж
Аудио#6: Английский 48 kHz, AC3, 6 ch 640 Kbps - Оригинал
Аудио#7: Английский 48 kHz, DTS-X MA, 8ch, 3953 Kbps - Оригинал
Аудио#8: Английский 48 kHz, AC3, 2 ch, 192 Kbps - Оригинал+Audiodeion
скриншот  скриншот  скриншот  скриншот  скриншот  скриншот  

Видео
Идентификатор : 1
Формат : HEVC
Формат/Информация : High Efficiency Video Coding
Профиль формата : Main 10@L5.1@High
Идентификатор кодека : V_MPEGH/ISO/HEVC
Продолжительность : 2 ч. 18 м.
Битрейт : 49,1 Мбит/сек
Ширина : 3840 пикселей
Высота : 2160 пикселей
Соотношение сторон : 16:9
Режим частоты кадров : Постоянный
Частота кадров : 23,976 (24000/1001) кадра/сек
Цветовое пространство : YUV
Субдискретизация насыщенности : 4:2:0 (Type 2)
Битовая глубина : 10 бит
Бит/(Пиксели*Кадры) : 0.247
Размер потока : 47,4 Гбайт (87%)
Заголовок : Harry.Potter.and.the.Order.of.the.Phoenix.2007.2160p.BluRay.REMUX.HEVC.HDR
Default : Да
Forced : Нет
Цветовой диапазон : Limited
Основные цвета : BT.2020
Характеристики трансфера : PQ
Коэффициенты матрицы : BT.2020 non-constant
MasteringDisplay_ColorPrimaries : R: x=0.680000 y=0.320000, G: x=0.265000 y=0.690000, B: x=0.150000 y=0.060000, White point: x=0.312700 y=0.329000
MasteringDisplay_Luminance : min: 0.0050 cd/m2, max: 4000.0000 cd/m2
MaxCLL : 500 cd/m2
MaxFALL : 200 cd/m2

Аудио #1
Идентификатор : 2
Формат : AC-3
Формат/Информация : Audio Coding 3
Параметр Endianness формата : Big
Идентификатор кодека : A_AC3
Продолжительность : 2 ч. 18 м.
Вид битрейта : Постоянный
Битрейт : 640 Кбит/сек
Каналы : 6 каналов
Расположение каналов : Front: L C R, Side: L R, LFE
Частота : 48,0 КГц
Частота кадров : 31,250 кадров/сек (1536 SPF)
Битовая глубина : 16 бит
Метод сжатия : С потерями
Размер потока : 633 Мбайт (1%)
Заголовок : AC3 5.1 @ 640Kbps - (Дублированный) Blu-ray CEE
Язык : Russian
ServiceKind/String : Complete Main
Default : Да
Forced : Нет

Аудио #2
Идентификатор : 3
Формат : AC-3
Формат/Информация : Audio Coding 3
Параметр Endianness формата : Big
Идентификатор кодека : A_AC3
Продолжительность : 2 ч. 18 м.
Вид битрейта : Постоянный
Битрейт : 448 Кбит/сек
Каналы : 6 каналов
Расположение каналов : Front: L C R, Side: L R, LFE
Частота : 48,0 КГц
Частота кадров : 31,250 кадров/сек (1536 SPF)
Битовая глубина : 16 бит
Метод сжатия : С потерями
Размер потока : 443 Мбайт (1%)
Заголовок : AC3 5.1 @ 448Kbps - (Двухголосый закадровый, П. Гланц и И. Королёва)
Язык : Russian
ServiceKind/String : Complete Main
Default : Нет
Forced : Нет

Аудио #3
Идентификатор : 4
Формат : AC-3
Формат/Информация : Audio Coding 3
Параметр Endianness формата : Big
Идентификатор кодека : A_AC3
Продолжительность : 2 ч. 18 м.
Вид битрейта : Постоянный
Битрейт : 448 Кбит/сек
Каналы : 6 каналов
Расположение каналов : Front: L C R, Side: L R, LFE
Частота : 48,0 КГц
Частота кадров : 31,250 кадров/сек (1536 SPF)
Битовая глубина : 16 бит
Метод сжатия : С потерями
Размер потока : 443 Мбайт (1%)
Заголовок : AC3 5.1 @ 448Kbps - (Одноголосый закадровый, С. Рябов)
Язык : Russian
ServiceKind/String : Complete Main
Default : Нет
Forced : Нет

Аудио #4
Идентификатор : 5
Формат : AC-3
Формат/Информация : Audio Coding 3
Параметр Endianness формата : Big
Идентификатор кодека : A_AC3
Продолжительность : 2 ч. 18 м.
Вид битрейта : Постоянный
Битрейт : 448 Кбит/сек
Каналы : 6 каналов
Расположение каналов : Front: L C R, Side: L R, LFE
Частота : 48,0 КГц
Частота кадров : 31,250 кадров/сек (1536 SPF)
Битовая глубина : 16 бит
Метод сжатия : С потерями
Размер потока : 443 Мбайт (1%)
Заголовок : AC3 5.1 @ 448Kbps - (Одноголосый закадровый, А. Медведев)
Язык : Russian
ServiceKind/String : Complete Main
Default : Нет
Forced : Нет

Аудио #5
Идентификатор : 6
Формат : AC-3
Формат/Информация : Audio Coding 3
Параметр Endianness формата : Big
Идентификатор кодека : A_AC3
Продолжительность : 2 ч. 18 м.
Вид битрейта : Постоянный
Битрейт : 640 Кбит/сек
Каналы : 6 каналов
Расположение каналов : Front: L C R, Side: L R, LFE
Частота : 48,0 КГц
Частота кадров : 31,250 кадров/сек (1536 SPF)
Битовая глубина : 16 бит
Метод сжатия : С потерями
Размер потока : 633 Мбайт (1%)
Заголовок : AC3 5.1 @ 640Kbps - (Дублированный) Blu-ray CEE
Язык : Ukrainian
ServiceKind/String : Complete Main
Default : Нет
Forced : Нет

Аудио #6
Идентификатор : 7
Формат : AC-3
Формат/Информация : Audio Coding 3
Параметр Endianness формата : Big
Идентификатор кодека : A_AC3
Продолжительность : 2 ч. 18 м.
Вид битрейта : Постоянный
Битрейт : 640 Кбит/сек
Каналы : 6 каналов
Расположение каналов : Front: L C R, Side: L R, LFE
Частота : 48,0 КГц
Частота кадров : 31,250 кадров/сек (1536 SPF)
Битовая глубина : 16 бит
Метод сжатия : С потерями
Размер потока : 633 Мбайт (1%)
Заголовок : AC3 5.1 @ 640Kbps (English) Blu-ray CEE
Язык : English
ServiceKind/String : Complete Main
Default : Нет
Forced : Нет

Аудио #7
Идентификатор : 8
Формат : DTS
Формат/Информация : Digital Theater Systems
Профиль формата : X / MA / Core
Режим : 16
Параметр Endianness формата : Big
Идентификатор кодека : A_DTS
Продолжительность : 2 ч. 18 м.
Вид битрейта : Переменный / Переменный / Постоянный
Битрейт : 3953 Кбит/сек / 3953 Кбит/сек / 1509 Кбит/сек
Каналы : Object Based / 8 каналов / 6 каналов
Расположение каналов : Object Based / Front: L C R, Side: L R, Back: L R, LFE / Front: L C R, Side: L R, LFE
Частота : / 48,0 КГц / 48,0 КГц
Частота кадров : 93,750 кадра/сек (512 SPF)
Битовая глубина : / 24 бит / 24 бит
Метод сжатия : / Lossless / Lossy
Размер потока : 3,82 Гбайт (7%)
Заголовок : DTS-X MA [ORIGINAL]
Язык : English
Default : Нет
Forced : Нет

Аудио #8
Идентификатор : 9
Формат : AC-3
Формат/Информация : Audio Coding 3
Режим : Dolby Digital
Параметр Endianness формата : Big
Идентификатор кодека : A_AC3
Продолжительность : 2 ч. 18 м.
Вид битрейта : Постоянный
Битрейт : 192 Кбит/сек
Каналы : 2 канала
Расположение каналов : Front: L R
Частота : 48,0 КГц
Частота кадров : 31,250 кадров/сек (1536 SPF)
Битовая глубина : 16 бит
Метод сжатия : С потерями
Задержка видео : 22 мс.
Размер потока : 190 Мбайт (0%)
Заголовок : [Audiodescription]
Язык : English
ServiceKind/String : Complete Main
Default : Нет
Forced : Нет

Текст #1
Идентификатор : 10
Формат : UTF-8
Идентификатор кодека : S_TEXT/UTF8
Идентификатор кодека/Информация : UTF-8 Plain Text
Продолжительность : 2 ч. 2 м.
Битрейт : 1 бит/сек
ElementCount : 29
Размер потока : 1,79 Кбайт (0%)
Заголовок : Forced
Язык : Russian
Default : Да
Forced : Да

Текст #2
Идентификатор : 11
Формат : UTF-8
Идентификатор кодека : S_TEXT/UTF8
Идентификатор кодека/Информация : UTF-8 Plain Text
Продолжительность : 2 ч. 17 м.
Битрейт : 86 бит/сек
ElementCount : 1349
Размер потока : 87,7 Кбайт (0%)
Заголовок : Full
Язык : Russian
Default : Нет
Forced : Нет

Текст #3
Идентификатор : 12
Формат : UTF-8
Идентификатор кодека : S_TEXT/UTF8
Идентификатор кодека/Информация : UTF-8 Plain Text
Продолжительность : 2 ч. 2 м.
Битрейт : 1 бит/сек
ElementCount : 27
Размер потока : 1,52 Кбайт (0%)
Заголовок : Forced
Язык : Ukrainian
Default : Нет
Forced : Да

Текст #4
Идентификатор : 13
Формат : UTF-8
Идентификатор кодека : S_TEXT/UTF8
Идентификатор кодека/Информация : UTF-8 Plain Text
Продолжительность : 2 ч. 10 м.
Битрейт : 81 бит/сек
ElementCount : 1329
Размер потока : 77,3 Кбайт (0%)
Заголовок : Full
Язык : Ukrainian
Default : Нет
Forced : Нет

Текст #5
Идентификатор : 14
Формат : UTF-8
Идентификатор кодека : S_TEXT/UTF8
Идентификатор кодека/Информация : UTF-8 Plain Text
Продолжительность : 2 ч. 17 м.
Битрейт : 46 бит/сек
ElementCount : 1298
Размер потока : 46,6 Кбайт (0%)
Заголовок : Full
Язык : English
Default : Нет
Forced : Нет

Текст #6
Идентификатор : 15
Формат : UTF-8
Идентификатор кодека : S_TEXT/UTF8
Идентификатор кодека/Информация : UTF-8 Plain Text
Продолжительность : 2 ч. 17 м.
Битрейт : 52 бит/сек
ElementCount : 1523
Размер потока : 52,8 Кбайт (0%)
Заголовок : Ful, SDH
Язык : English
Default : Нет
Forced : Нет

Меню
00:00:00.000 : en:Chapter 1
00:04:50.832 : en:Chapter 2
00:10:16.532 : en:Chapter 3
00:15:19.877 : en:Chapter 4
00:17:43.020 : en:Chapter 5
00:20:52.209 : en:Chapter 6
00:25:33.490 : en:Chapter 7
00:28:07.143 : en:Chapter 8
00:30:20.777 : en:Chapter 9
00:34:53.758 : en:Chapter 10
00:37:40.925 : en:Chapter 11
00:41:48.297 : en:Chapter 12
00:44:57.361 : en:Chapter 13
00:50:57.220 : en:Chapter 14
00:56:37.227 : en:Chapter 15
01:03:28.471 : en:Chapter 16
01:07:39.013 : en:Chapter 17
01:11:15.854 : en:Chapter 18
01:16:30.127 : en:Chapter 19
01:19:16.460 : en:Chapter 20
01:25:30.792 : en:Chapter 21
01:31:30.526 : en:Chapter 22
01:34:49.642 : en:Chapter 23
01:37:42.273 : en:Chapter 24
01:41:40.135 : en:Chapter 25
01:45:59.102 : en:Chapter 26
01:48:37.010 : en:Chapter 27
01:52:40.754 : en:Chapter 28
01:57:30.543 : en:Chapter 29
02:03:32.988 : en:Chapter 30
02:05:50.459 : en:Chapter 31
02:08:26.865 : en:Chapter 32



Скачать Гарри Поттер и орден Феникса через торрент http://i100.fastpic.ru/big/2018/0111/a7/5bcaa0892eb2256eede5af83b7154ca7.jpg Скачать, смотреть онлайн Гарри Поттер и орден Феникса бесплантно в хорошем качестве Описание: Экранизация одноименного романа Дж. К. Роулинг. Гарри проводит свой пятый год обучения в школе Хогвартс и обнаруживает, что ... 9.9 10 9
Info! Золотая раздача, скачанное не засчитывается.
Торрент: Зарегистрирован [2018-01-11 06:23] · скачан: 361 раз
Статус: √ проверено
Размер: 54.57 GB
Как cкачать? Как скачать Гарри Поттер и орден Феникса через торрент | UTorrent

% Раздел Тема Автор DL S | L
Фильмы (HD 720p, 1080p) (48-60 fps) [ 5.84 GB ] Гарри Поттер и Орден Феникса / Harry Potter and the Order of the Phoenix | Дубляж | DLRip 720p / 60 FPS slaventi-69 Скачать
1 | 7

28-11-2019 20:33  


Отключить вcю реклaмy на сайте, в т.ч. и в плеере онлайн просмотра!

    Дорогой пользователь! Огромная просьба, поблагодарите релизера, оцените раздачу и оставьте свои комментарий, если Вы скачали Гарри Поттер и орден Феникса через торрент бесплатно!!
    Комментировать посты могут только пользователи прошедшие не сложную регистрацию
    Показать сообщения:    


    Гарри Поттер и орден Феникса через торрент
    Скачать бесплатно Гарри Поттер и орден Феникса
    Гарри Поттер и орден Феникса скачать торрент
    Гарри Поттер и орден Феникса смотреть онлайн
    Cкачать фильм Гарри Поттер и орден Феникса бесплатно
    Гарри Поттер и орден Феникса скачать торрент в хорошем качестве
    Гарри Поттер и орден Феникса смотреть онлайн бесплатно в хорошем качестве
    Вы не можете начинать темы
    Вы не можете отвечать на сообщения
    Вы не можете редактировать свои сообщения
    Вы не можете удалять свои сообщения
    Вы не можете голосовать в опросах
    Вы не можете прикреплять файлы к сообщениям
    Вы можете скачивать файлы
    Гарри Поттер и орден Феникса / Harry Potter and the Order of the Phoenix [2007, Фэнтези, приключения, UHD BDRemux 2160p] DVO+2xAVO+Дубляж смотреть онлайн, скачать торрент picoco.icu