Доктор Стрэндж

Лицензия

Добыча

MVO

Дом дракона

1 сезон

Тор

Лицензия

Мэверик

Лицензия

Там, где раки поют

MVO

Властелин колец

1 сезон

Ultimate

pack

Рекомендуем

30

Repack

ВАЖНО

ВАЖНО

Ghostwire

RePack

jed

RePack

nioh2

RePack

RDR2

RePack

NEED FOR SPEED™ PAYBACK

RePack

скачать торрент

Кинопоиск HD

Острые козырьки 6 сезон

6 сезон

FAR CRY 6

RePack

скачать торрент

Лицензия

скачать торрент

MVO

1

1 сезон

скачать торрент

1 сезон

скачать торрент

Лицензия

  

Любой ценой (Анатолий Слесаренко) [1959, СССР, драма, военный, приключения, VHSRip от AVP Studio]

Любой ценой через торрент piratbit.org

Размер: 746 MB | Добавлен: 4 года 8 мес. назад | Торрент скачан:19 раз
Смотреть онлайн Любой ценой | Скачать   

11-01-2018 10:00 Любой ценой Скачать торрент  

Любой ценой
Страна: СССР
Производство: Ялтинская киностудия

Жанр: драма, военный, приключения
Год выпуска: 1959
Продолжительность: 01:20:36

Перевод: Не требуется
Cубтитры: нет
Оригинальная аудиодорожка: русский

Режиссер: Анатолий Слесаренко

В ролях:
Вова Силуянов, Витя Авдеев, Ада Войцик, Павел Усовниченко, Ольга Жизнева, Владимир Кенигсон, Владимир Пицек, Андрей Файт, Михаил Орлов, Иван Савкин, Сергей Петров, Григорий Плужник, Юрий Прокопович...
Об актёрах подробней

Описание:
Подпольщики города Николаева захватили в плен немецкого офицера Швальдера. Он сообщил очень важные секретные сведения, которые нужно срочно передать на Большую землю. Но как это сделать ? По радио - невозможно : текст шифрованной телеграммы может попасть в руки врагов. Ответственное задание перебраться через линию фронта и доставить пакет главнокомандующему поручают двум юным разведчикам Вите Остапенко и Шуре Гончару.

Исходник: VHS
Качество видео: VHSRip
Формат видео: AVI

Видео: 640x480 (4:3), 25 fps, XviD ~ 1156 kbps avg, 0.150 bit/pixel
Аудио: 48 kHz, Dolby Digital AC3 2.0, 192 kbps

Раздача от:
Общее
Полное имя : Lyuboy.cenoy.1959.VHSRip-745_[New-team]_by_AVP_Studio.avi
Формат : AVI
Формат/Информация : Audio Video Interleave
Размер файла : 746 Мбайт
Продолжительность : 1 ч. 20 м.
Общий поток : 1294 Кбит/сек
Программа кодирования : VirtualDubMod 1.5.10.3 | www.virtualdub-fr.org || (build 2550/release)
Библиотека кодирования : VirtualDubMod build 2550/release

Видео
Идентификатор : 0
Формат : MPEG-4 Visual
Профиль формата : Advanced Simple@L5
Настройки формата : BVOP1 / Custom Matrix
Параметр BVOP формата : 1
Параметр QPel формата : Нет
Параметр GMC формата : Без точки перехода
Параметр матрицы формата : Выборочная
Идентификатор кодека : XVID
Идентификатор кодека/Подсказка : XviD
Продолжительность : 1 ч. 20 м.
Битрейт : 1156 Кбит/сек
Ширина : 640 пикселей
Высота : 480 пикселей
Соотношение сторон : 4:3
Частота кадров : 25,000 кадров/сек
Цветовое пространство : YUV
Субдискретизация насыщенности : 4:2:0
Битовая глубина : 8 бит
Тип развёртки : Прогрессивная
Метод сжатия : С потерями
Бит/(Пиксели*Кадры) : 0.150
Размер потока : 666 Мбайт (89%)
Библиотека кодирования : XviD 73

Аудио
Идентификатор : 1
Формат : MPEG Audio
Версия формата : Version 1
Профиль формата : Layer 3
Идентификатор кодека : 55
Идентификатор кодека/Подсказка : MP3
Продолжительность : 1 ч. 20 м.
Вид битрейта : Постоянный
Битрейт : 128 Кбит/сек
Каналы : 2 канала
Частота : 48,0 КГц
Частота кадров : 41,667 кадра/сек (1152 SPF)
Метод сжатия : С потерями
Размер потока : 73,8 Мбайт (10%)
Выравнивание : Соединение по промежуткам
Продолжительность промежутка : 40 мс. (1,00 видеокадр)
Время предзагрузки промежутка : 504 мс.
Библиотека кодирования : LAME3.99r
Настройки программы : -m s -V 4 -q 2 -lowpass 17 -b 128



Скачать Любой ценой через торрент http://i103.fastpic.ru/big/2018/0111/ac/749eac77a2ce1a990c5dc36b69b022ac.png Скачать, смотреть онлайн Любой ценой бесплантно в хорошем качестве Описание:Подпольщики города Николаева захватили в плен немецкого офицера Швальдера. Он сообщил очень важные секретные сведения, которые ... 5 10 1
Info! Золотая раздача, скачанное не засчитывается.
Торрент: Зарегистрирован [2018-01-11 10:00] · скачан: 19 раз
Статус: √ проверено
Размер: 746 MB
Как cкачать? Как скачать Любой ценой через торрент | UTorrent

% Раздел Тема Автор DL S | L
Кино СССР [ 1.09 GB ] Любой ценой | | Любой ценой (Анатолий Слесаренко AVP Studio Скачать
1 | 0
Кино СССР [ 1.09 GB ] Любой ценой | | Любой ценой (Анатолий Слесаренко AVP Studio Скачать
1 | 0

28-11-2019 20:33  

Отключить вcю реклaмy на сайте

    Дорогой пользователь! Огромная просьба, поблагодарите релизера, оцените раздачу и оставьте свои комментарий, если Вы скачали Любой ценой через торрент бесплатно!!
    Комментировать посты могут только пользователи прошедшие не сложную регистрацию
    Показать сообщения:    


    Любой ценой через торрент
    Скачать бесплатно Любой ценой
    Любой ценой скачать торрент
    Любой ценой смотреть онлайн
    Cкачать фильм Любой ценой бесплатно
    Любой ценой скачать торрент в хорошем качестве
    Любой ценой смотреть онлайн бесплатно в хорошем качестве
    Вы не можете начинать темы
    Вы не можете отвечать на сообщения
    Вы не можете редактировать свои сообщения
    Вы не можете удалять свои сообщения
    Вы не можете голосовать в опросах
    Вы не можете прикреплять файлы к сообщениям
    Вы можете скачивать файлы