Достать ножи: Стеклянная луковица

MVO

Добыча

Дубляж

Уэнсдэй

1 сезон

Тор

Дубляж

13 клиническая

1 сезон

Жестокая ночь

MVO

Одни из нас

1 сезон

Deluxe

pack

Рекомендуем

30

Пиратка

ВАЖНО

ВАЖНО

Ghostwire

Пиратка

jed

RePack

nioh2

RePack

RDR2

RePack

NEED FOR SPEED™ PAYBACK

RePack

скачать торрент

Кинопоиск HD

Острые козырьки 6 сезон

6 сезон

FAR CRY 6

RePack

скачать торрент

Лицензия

скачать торрент

MVO

1

1 сезон

скачать торрент

1 сезон

скачать торрент

Лицензия

  

Дэдпул / Deadpool (Тим Миллер) [2016, фантастика, боевик, мелодрама, UHD BDRemux 2160p] Дубляж + MVO+ 5xAVO [Лицензия]

Дэдпул через торрент piratbit.org

Размер: 60.07 GB | Добавлен: 5 лет назад | Торрент скачан:119 раз
Смотреть онлайн | Скачать | Поддержите нас   

12-01-2018 12:29 Дэдпул Скачать торрент  

Дэдпул / Deadpool
Год выпуска: 2016
Страна: США
Жанр: фантастика, боевик, мелодрама, комедия, приключения
Студия: 20th Century Fox Film Corporation
Продолжительность: 01:48:42
Перевод: Дублированный (Лицензия BD CEE), Профессиональный (многоголосый, закадровый) (Кубик в кубе и не только), Авторский (одноголосый, закадровый) (Ю. Живов, Ю. Сербин, Е. Гаевский, А. Матвеев, А. Карповский)
Субтитры: Русские (5 видов), украинские (forced, full), английские (7 видов)
Режиссер: Тим Миллер
В ролях:

Райан Рейнольдс (Wade / Deadpool), Морена Баккарин (Vanessa), Эд Скрейн (Ajax), ТиДжей Миллер (Weasel), Джина Карано (Angel Dust), Брианна Хилдебранд (Negasonic Teenage Warhead), Стефан Капичич (Colossus, озвучка), Лесли Уггэмс (Blind Al), Джед Риис (Recruiter), Каран Сони (Dopinder), Майкл Беняер (Warlord), Стайл Дэйн (Jeremy (Pizza Guy))
Описание:
Уэйд Уилсон - наёмник. Будучи побочным продуктом программы вооружённых сил под названием «Оружие X», Уилсон приобрёл невероятную силу, проворство и способность к исцелению. Но страшной ценой: его клеточная структура постоянно меняется, а здравомыслие сомнительно. Всё, чего Уилсон хочет, - это держаться на плаву в социальной выгребной яме. Но течение в ней слишком быстрое.
Рейтинг:

MPAA: R - Лицам до 17 лет обязательно присутствие взрослого
Качество: UHD BDRemux 2160p
Формат: MKV
Видео: HEVC/H.265, 3840x2160p, (16:9), 45,0 Мбит/сек, 23,976 fps
Аудио 1: DTS, 6 ch, 768 kbps - Русский, Дубляж
Аудио 2: DTS-HD MA, 8 ch, 4893 kbps - Русский, Кубик в кубе и не только
Аудио 3: DTS-HD MA, 8 ch, 4835 kbps - Русский, Ю. Живов
Аудио 4: DTS-HD MA, 8 ch, 4829 kbps - Русский, Ю. Сербин
Аудио 5: DTS-HD MA, 8 ch, 4822 kbps - Русский, Е. Гаевский
Аудио 6: DTS-HD MA, 8 ch, 4909 kbps - Русский, А. Матвеев
Аудио 7: DTS-HD MA, 8 ch, 4831 kbps - Русский, А. Карповский
Аудио 8: AC3, 6 ch, 448 kbps - Украинский
Аудио 9: DTS-HD MA, 8 ch, 3840 kbps - Английский
Аудио 10: AC3, 2 ch, 224 kbps - Английский, Commentary with Ryan Reynolds
Аудио 11: AC3, 2 ch, 224 kbps - Английский, Commentary with Tim Miller and Rob Liefeld
Навигация по главам: есть
В дорожках №2,4,5,6,7 содержится ненормативная лексика!
Общее
Уникальный идентификатор : 208462492304644285729079355293330187275 (0x9CD46A6625267A66A6793D740DE2240B)
Полное имя : G:\HD\Дэдпул.2016.UHD.BluRay.Remux.2160p.mkv
Формат : Matroska
Версия формата : Version 4 / Version 2
Размер файла : 60,1 Гбайт
Продолжительность : 1 ч. 48 м.
Общий поток : 79,6 Мбит/сек
Дата кодирования : UTC 2017-11-29 17:08:29
Программа кодирования : mkvmerge v18.0.0 ('Apricity') 64-bit
Библиотека кодирования : libebml v1.3.5 + libmatroska v1.4.8
Attachments : poster.jpg

Видео
Идентификатор : 1
Формат : HEVC
Формат/Информация : High Efficiency Video Coding
Профиль формата : Main 10@L5.1@High
Идентификатор кодека : V_MPEGH/ISO/HEVC
Продолжительность : 1 ч. 48 м.
Битрейт : 45,0 Мбит/сек
Ширина : 3840 пикселей
Высота : 2160 пикселей
Соотношение сторон : 16:9
Режим частоты кадров : Постоянный
Частота кадров : 23,976 (24000/1001) кадра/сек
Цветовое пространство : YUV
Субдискретизация насыщенности : 4:2:0 (Type 2)
Битовая глубина : 10 бит
Бит/(Пиксели*Кадры) : 0.226
Размер потока : 34,0 Гбайт (57%)
Библиотека кодирования : ATEME Titan KFE 3.7.3 (4.7.3.1003)
Default : Да
Forced : Нет
Цветовой диапазон : Limited
Основные цвета : BT.2020
Характеристики трансфера : PQ
Коэффициенты матрицы : BT.2020 non-constant
MasteringDisplay_ColorPrimaries : R: x=0.680000 y=0.320000, G: x=0.265000 y=0.690000, B: x=0.150000 y=0.060000, White point: x=0.312700 y=0.329000
MasteringDisplay_Luminance : min: 0.0000 cd/m2, max: 1000.0000 cd/m2

Аудио #1
Идентификатор : 2
Формат : DTS
Формат/Информация : Digital Theater Systems
Идентификатор кодека : A_DTS
Продолжительность : 1 ч. 48 м.
Вид битрейта : Постоянный
Битрейт : 768 Кбит/сек
Каналы : 6 каналов
Расположение каналов : Front: L C R, Side: L R, LFE
Частота : 48,0 КГц
Частота кадров : 93,750 кадра/сек (512 SPF)
Битовая глубина : 24 бит
Метод сжатия : С потерями
Размер потока : 594 Мбайт (1%)
Заголовок : Дубляж, Blu-Ray
Язык : Russian
Default : Да
Forced : Нет

Аудио #2
Идентификатор : 3
Формат : DTS
Формат/Информация : Digital Theater Systems
Профиль формата : MA / ES Matrix / Core
Идентификатор кодека : A_DTS
Продолжительность : 1 ч. 48 м.
Вид битрейта : Переменный / Постоянный / Постоянный
Битрейт : 4893 Кбит/сек / 1509 Кбит/сек / 1509 Кбит/сек
Каналы : 8 каналов / 7 каналов / 6 каналов
Расположение каналов : Front: L C R, Side: L R, Back: L R, LFE / Front: L C R, Side: L R, Back: C, LFE / Front: L C R, Side: L R, LFE
Частота : 48,0 КГц
Частота кадров : 93,750 кадра/сек (512 SPF)
Битовая глубина : 24 бит
Метод сжатия : Без потерь / Lossy / Lossy
Размер потока : 3,69 Гбайт (6%)
Заголовок : MVO
Язык : Russian
Default : Нет
Forced : Нет

Аудио #3
Идентификатор : 4
Формат : DTS
Формат/Информация : Digital Theater Systems
Профиль формата : MA / Core
Идентификатор кодека : A_DTS
Продолжительность : 1 ч. 48 м.
Вид битрейта : Переменный / Постоянный
Битрейт : 4835 Кбит/сек / 1509 Кбит/сек
Каналы : 8 каналов / 6 каналов
Расположение каналов : Front: L C R, Side: L R, Back: L R, LFE / Front: L C R, Side: L R, LFE
Частота : 48,0 КГц
Частота кадров : 93,750 кадра/сек (512 SPF)
Битовая глубина : 24 бит
Метод сжатия : Без потерь / Lossy
Размер потока : 3,65 Гбайт (6%)
Заголовок : Ю. Живов
Язык : Russian
Default : Нет
Forced : Нет

Аудио #4
Идентификатор : 5
Формат : DTS
Формат/Информация : Digital Theater Systems
Профиль формата : MA / Core
Идентификатор кодека : A_DTS
Продолжительность : 1 ч. 48 м.
Вид битрейта : Переменный / Постоянный
Битрейт : 4829 Кбит/сек / 1509 Кбит/сек
Каналы : 8 каналов / 6 каналов
Расположение каналов : Front: L C R, Side: L R, Back: L R, LFE / Front: L C R, Side: L R, LFE
Частота : 48,0 КГц
Частота кадров : 93,750 кадра/сек (512 SPF)
Битовая глубина : 24 бит
Метод сжатия : Без потерь / Lossy
Размер потока : 3,65 Гбайт (6%)
Заголовок : Ю. Сербин
Язык : Russian
Default : Нет
Forced : Нет

Аудио #5
Идентификатор : 6
Формат : DTS
Формат/Информация : Digital Theater Systems
Профиль формата : MA / ES Matrix / Core
Идентификатор кодека : A_DTS
Продолжительность : 1 ч. 48 м.
Вид битрейта : Переменный / Постоянный / Постоянный
Битрейт : 4822 Кбит/сек / 1509 Кбит/сек / 1509 Кбит/сек
Каналы : 8 каналов / 7 каналов / 6 каналов
Расположение каналов : Front: L C R, Side: L R, Back: L R, LFE / Front: L C R, Side: L R, Back: C, LFE / Front: L C R, Side: L R, LFE
Частота : 48,0 КГц
Частота кадров : 93,750 кадра/сек (512 SPF)
Битовая глубина : 24 бит
Метод сжатия : Без потерь / Lossy / Lossy
Размер потока : 3,64 Гбайт (6%)
Заголовок : Е. Гаевский
Язык : Russian
Default : Нет
Forced : Нет

Аудио #6
Идентификатор : 7
Формат : DTS
Формат/Информация : Digital Theater Systems
Профиль формата : MA / Core
Идентификатор кодека : A_DTS
Продолжительность : 1 ч. 48 м.
Вид битрейта : Переменный / Постоянный
Битрейт : 4909 Кбит/сек / 1509 Кбит/сек
Каналы : 8 каналов / 6 каналов
Расположение каналов : Front: L C R, Side: L R, Back: L R, LFE / Front: L C R, Side: L R, LFE
Частота : 48,0 КГц
Частота кадров : 93,750 кадра/сек (512 SPF)
Битовая глубина : 24 бит
Метод сжатия : Без потерь / Lossy
Размер потока : 3,71 Гбайт (6%)
Заголовок : А. Матвеев
Язык : Russian
Default : Нет
Forced : Нет

Аудио #7
Идентификатор : 8
Формат : DTS
Формат/Информация : Digital Theater Systems
Профиль формата : MA / Core
Идентификатор кодека : A_DTS
Продолжительность : 1 ч. 48 м.
Вид битрейта : Переменный / Постоянный
Битрейт : 4831 Кбит/сек / 1509 Кбит/сек
Каналы : 8 каналов / 6 каналов
Расположение каналов : Front: L C R, Side: L R, Back: L R, LFE / Front: L C R, Side: L R, LFE
Частота : 48,0 КГц
Частота кадров : 93,750 кадра/сек (512 SPF)
Битовая глубина : 24 бит
Метод сжатия : Без потерь / Lossy
Размер потока : 3,65 Гбайт (6%)
Заголовок : А. Карповский
Язык : Russian
Default : Нет
Forced : Нет

Аудио #8
Идентификатор : 9
Формат : AC-3
Формат/Информация : Audio Coding 3
Идентификатор кодека : A_AC3
Продолжительность : 1 ч. 48 м.
Вид битрейта : Постоянный
Битрейт : 448 Кбит/сек
Каналы : 6 каналов
Расположение каналов : Front: L C R, Side: L R, LFE
Частота : 48,0 КГц
Частота кадров : 31,250 кадров/сек (1536 SPF)
Битовая глубина : 16 бит
Метод сжатия : С потерями
Размер потока : 346 Мбайт (1%)
Заголовок : Дубляж, Blu-Ray
Язык : Ukrainian
ServiceKind/String : Complete Main
Default : Нет
Forced : Нет

Аудио #9
Идентификатор : 10
Формат : DTS
Формат/Информация : Digital Theater Systems
Профиль формата : MA / Core
Идентификатор кодека : A_DTS
Продолжительность : 1 ч. 48 м.
Вид битрейта : Переменный / Постоянный
Битрейт : 3840 Кбит/сек / 1509 Кбит/сек
Каналы : 8 каналов / 6 каналов
Расположение каналов : Front: L C R, Side: L R, Back: L R, LFE / Front: L C R, Side: L R, LFE
Частота : 48,0 КГц
Частота кадров : 93,750 кадра/сек (512 SPF)
Битовая глубина : 24 бит
Метод сжатия : Без потерь / Lossy
Размер потока : 2,85 Гбайт (5%)
Язык : English
Default : Нет
Forced : Нет

Аудио #10
Идентификатор : 11
Формат : AC-3
Формат/Информация : Audio Coding 3
Идентификатор кодека : A_AC3
Продолжительность : 1 ч. 48 м.
Вид битрейта : Постоянный
Битрейт : 224 Кбит/сек
Каналы : 2 канала
Расположение каналов : Front: L R
Частота : 48,0 КГц
Частота кадров : 31,250 кадров/сек (1536 SPF)
Битовая глубина : 16 бит
Метод сжатия : С потерями
Размер потока : 173 Мбайт (0%)
Заголовок : Commentary with Ryan Reynolds, Rhett Reese and Paul Wernick
Язык : English
ServiceKind/String : Complete Main
Default : Нет
Forced : Нет

Аудио #11
Идентификатор : 12
Формат : AC-3
Формат/Информация : Audio Coding 3
Идентификатор кодека : A_AC3
Продолжительность : 1 ч. 48 м.
Вид битрейта : Постоянный
Битрейт : 224 Кбит/сек
Каналы : 2 канала
Расположение каналов : Front: L R
Частота : 48,0 КГц
Частота кадров : 31,250 кадров/сек (1536 SPF)
Битовая глубина : 16 бит
Метод сжатия : С потерями
Размер потока : 173 Мбайт (0%)
Заголовок : Commentary with Tim Miller and Rob Liefeld
Язык : English
ServiceKind/String : Complete Main
Default : Нет
Forced : Нет

Текст #1
Идентификатор : 13
Формат : UTF-8
Идентификатор кодека : S_TEXT/UTF8
Идентификатор кодека/Информация : UTF-8 Plain Text
Продолжительность : 1 ч. 33 м.
Битрейт : 0 бит/сек
ElementCount : 3
Размер потока : 136 байт (0%)
Заголовок : forced
Язык : Russian
Default : Да
Forced : Нет

Текст #2
Идентификатор : 14
Формат : UTF-8
Идентификатор кодека : S_TEXT/UTF8
Идентификатор кодека/Информация : UTF-8 Plain Text
Продолжительность : 1 ч. 47 м.
Битрейт : 88 бит/сек
ElementCount : 1403
Размер потока : 69,4 Кбайт (0%)
Заголовок : full
Язык : Russian
Default : Нет
Forced : Нет

Текст #3
Идентификатор : 15
Формат : UTF-8
Идентификатор кодека : S_TEXT/UTF8
Идентификатор кодека/Информация : UTF-8 Plain Text
Продолжительность : 1 ч. 47 м.
Битрейт : 106 бит/сек
ElementCount : 1016
Размер потока : 84,0 Кбайт (0%)
Заголовок : А. Матвеев
Язык : Russian
Default : Нет
Forced : Нет

Текст #4
Идентификатор : 16
Формат : UTF-8
Идентификатор кодека : S_TEXT/UTF8
Идентификатор кодека/Информация : UTF-8 Plain Text
Продолжительность : 1 ч. 47 м.
Битрейт : 175 бит/сек
ElementCount : 2253
Размер потока : 139 Кбайт (0%)
Заголовок : Commentary with Ryan Reynolds, Rhett Reese and Paul Wernic
Язык : Russian
Default : Нет
Forced : Нет

Текст #5
Идентификатор : 17
Формат : UTF-8
Идентификатор кодека : S_TEXT/UTF8
Идентификатор кодека/Информация : UTF-8 Plain Text
Продолжительность : 1 ч. 47 м.
Битрейт : 188 бит/сек
ElementCount : 1922
Размер потока : 149 Кбайт (0%)
Заголовок : Commentary with Tim Miller and Rob Liefeld
Язык : Russian
Default : Нет
Forced : Нет

Текст #6
Идентификатор : 18
Формат : UTF-8
Идентификатор кодека : S_TEXT/UTF8
Идентификатор кодека/Информация : UTF-8 Plain Text
Продолжительность : 1 ч. 47 м.
Битрейт : 0 бит/сек
ElementCount : 13
Размер потока : 591 байт (0%)
Заголовок : forced
Язык : Ukrainian
Default : Нет
Forced : Нет

Текст #7
Идентификатор : 19
Формат : UTF-8
Идентификатор кодека : S_TEXT/UTF8
Идентификатор кодека/Информация : UTF-8 Plain Text
Продолжительность : 1 ч. 47 м.
Битрейт : 92 бит/сек
ElementCount : 1420
Размер потока : 73,0 Кбайт (0%)
Заголовок : full
Язык : Ukrainian
Default : Нет
Forced : Нет

Текст #8
Идентификатор : 20
Формат : UTF-8
Идентификатор кодека : S_TEXT/UTF8
Идентификатор кодека/Информация : UTF-8 Plain Text
Продолжительность : 1 ч. 44 м.
Битрейт : 56 бит/сек
ElementCount : 1383
Размер потока : 43,1 Кбайт (0%)
Заголовок : full
Язык : English
Default : Нет
Forced : Нет

Текст #9
Идентификатор : 21
Формат : UTF-8
Идентификатор кодека : S_TEXT/UTF8
Идентификатор кодека/Информация : UTF-8 Plain Text
Продолжительность : 1 ч. 47 м.
Битрейт : 64 бит/сек
ElementCount : 1853
Размер потока : 50,5 Кбайт (0%)
Заголовок : SDH
Язык : English
Default : Нет
Forced : Нет

Текст #10
Идентификатор : 22
Формат : UTF-8
Идентификатор кодека : S_TEXT/UTF8
Идентификатор кодека/Информация : UTF-8 Plain Text
Продолжительность : 1 ч. 47 м.
Битрейт : 81 бит/сек
ElementCount : 1853
Размер потока : 64,5 Кбайт (0%)
Заголовок : SDH-Colored
Язык : English
Default : Нет
Forced : Нет

Текст #11
Идентификатор : 23
Формат : UTF-8
Идентификатор кодека : S_TEXT/UTF8
Идентификатор кодека/Информация : UTF-8 Plain Text
Продолжительность : 1 ч. 47 м.
Битрейт : 140 бит/сек
ElementCount : 2352
Размер потока : 111 Кбайт (0%)
Заголовок : Commentary with Ryan Reynolds, Rhett Reese and Paul Wernick
Язык : English
Default : Нет
Forced : Нет

Текст #12
Идентификатор : 24
Формат : UTF-8
Идентификатор кодека : S_TEXT/UTF8
Идентификатор кодека/Информация : UTF-8 Plain Text
Продолжительность : 1 ч. 48 м.
Битрейт : 155 бит/сек
ElementCount : 2421
Размер потока : 123 Кбайт (0%)
Заголовок : Commentary with Ryan Reynolds, Rhett Reese and Paul Wernick, SDH
Язык : English
Default : Нет
Forced : Нет

Текст #13
Идентификатор : 25
Формат : UTF-8
Идентификатор кодека : S_TEXT/UTF8
Идентификатор кодека/Информация : UTF-8 Plain Text
Продолжительность : 1 ч. 47 м.
Битрейт : 136 бит/сек
ElementCount : 1963
Размер потока : 108 Кбайт (0%)
Заголовок : Commentary with Tim Miller and Rob Liefel
Язык : English
Default : Нет
Forced : Нет

Текст #14
Идентификатор : 26
Формат : UTF-8
Идентификатор кодека : S_TEXT/UTF8
Идентификатор кодека/Информация : UTF-8 Plain Text
Продолжительность : 1 ч. 47 м.
Битрейт : 142 бит/сек
ElementCount : 1994
Размер потока : 113 Кбайт (0%)
Заголовок : Commentary with Tim Miller and Rob Liefel, SDH
Язык : English
Default : Нет
Forced : Нет

Меню
00:00:00.000 : en:00:00:00.000
00:03:04.726 : en:00:03:04.726
00:05:53.019 : en:00:05:53.019
00:09:30.820 : en:00:09:30.820
00:13:19.090 : en:00:13:19.090
00:16:48.716 : en:00:16:48.716
00:20:12.545 : en:00:20:12.545
00:22:06.408 : en:00:22:06.408
00:27:09.628 : en:00:27:09.628
00:31:58.959 : en:00:31:58.959
00:36:51.709 : en:00:36:51.709
00:41:06.172 : en:00:41:06.172
00:44:45.766 : en:00:44:45.766
00:46:56.605 : en:00:46:56.605
00:50:10.966 : en:00:50:10.966
00:53:18.028 : en:00:53:18.028
00:55:33.038 : en:00:55:33.038
00:59:07.753 : en:00:59:07.753
01:03:05.240 : en:01:03:05.240
01:07:06.439 : en:01:07:06.439
01:09:15.568 : en:01:09:15.568
01:12:29.720 : en:01:12:29.720
01:16:46.393 : en:01:16:46.393
01:20:43.714 : en:01:20:43.714
01:25:53.398 : en:01:25:53.398
01:31:03.792 : en:01:31:03.792
01:34:46.973 : en:01:34:46.973
01:39:52.737 : en:01:39:52.737





Скачать Дэдпул через торрент http://i102.fastpic.ru/big/2018/0112/c6/a57a99e5be1f4d51f22bebbf4da943c6.png Скачать, смотреть онлайн Дэдпул бесплантно в хорошем качестве Описание: Уэйд Уилсон - наёмник. Будучи побочным продуктом программы вооружённых сил под названием «Оружие X», Уилсон приобрёл невероятную ... 10 10 9
Info! Золотая раздача, скачанное не засчитывается.
Торрент: Зарегистрирован [2018-01-12 12:29] · скачан: 119 раз
Статус: √ проверено
Размер: 60.07 GB
Как cкачать? Как скачать Дэдпул через торрент | UTorrent

% Раздел Тема Автор DL S | L
Ultra HD (UHD: 2K, 4K, 8K) [ 111.68 GB ] Дэдпул | DUB + MVO + 5xAVO | 2160p sheker187 Скачать
1 | 0
Ultra HD (UHD: 2K, 4K, 8K) [ 25.49 GB ] Дэдпул / Deadpool | DUB | 2160p sheker187 Скачать
1 | 0
Фильмы (Blu-ray, BD-Remux, HDDVD) [ 48.68 GB ] Дэдпул / Deadpool | Лицензия | BD Remux 1080p bober100 Скачать
1 | 0
Фильмы 2016 [DVDrip, WEB-DLRip, HDrip] (DUB, MVO) [ 746 MB ] Дэдпул / Deadpool | Лицензия | BDRip-AVC sokol_ok Скачать
2 | 0
Фильмы 2016 [DVDrip, WEB-DLRip, HDrip] (DUB, MVO) [ 1.51 GB ] Дэдпул / Deadpool | Лицензия | BDRip-AVC sokol_ok Скачать
2 | 0
Ultra HD (UHD: 2K, 4K, 8K) [ 42.58 GB ] Дэдпул / Deadpool | Лицензия | 2160p bober100 Скачать
1 | 0
Фильмы (WEB-DL 720p, 1080p) [ 3.9 GB ] Дэдпул / Deadpool | iTunes | 1080p, Дубляж Ворон Скачать
1 | 0

28-11-2019 20:33  


Отключить вcю реклaмy на сайте, в т.ч. и в плеере онлайн просмотра!

    Дорогой пользователь! Огромная просьба, поблагодарите релизера, оцените раздачу и оставьте свои комментарий, если Вы скачали Дэдпул через торрент бесплатно!!
    Комментировать посты могут только пользователи прошедшие не сложную регистрацию
    Показать сообщения:    


    Дэдпул через торрент
    Скачать бесплатно Дэдпул
    Дэдпул скачать торрент
    Дэдпул смотреть онлайн
    Cкачать фильм Дэдпул бесплатно
    Дэдпул скачать торрент в хорошем качестве
    Дэдпул смотреть онлайн бесплатно в хорошем качестве
    Вы не можете начинать темы
    Вы не можете отвечать на сообщения
    Вы не можете редактировать свои сообщения
    Вы не можете удалять свои сообщения
    Вы не можете голосовать в опросах
    Вы не можете прикреплять файлы к сообщениям
    Вы можете скачивать файлы
    Дэдпул / Deadpool [2016, фантастика, боевик, мелодрама, UHD BDRemux 2160p] Дубляж + MVO+ 5xAVO [Лицензия] смотреть онлайн, скачать торрент picoco.icu