2 сезон

iTunes

WEBRip

1

2 сезон

iTunes

1 сезон

1 сезон

RePack

30

Новинка

ВАЖНО

ИГРА 18+

pack

RePack

MK11
pack

Легкие деньги

RePack

jed

RePack

fifa19

RePack

RDR2

RePack

NEED FOR SPEED™ PAYBACK

4 сезон

9 сезон

Бесстыжие 9 сезон

Все сериалы

все сериалы на PB.wtf

RePack

FAR CRY 5

Anonymous, доброй ночи, мы не успеваем собрать деньги на оплату серверов за февраль, помогите нам пожалуйста в это трудное время. В качестве благодарности мы отключим Вам всю рекламу на сайте (укажите свой ник в строку Ваше имя)!

×
  
Magnet ссылка

Дом / Операція «Казино» / The House (Эндрю Дж. Коэн) [2017, комедия, BDRip-AVC] [Ukr DUB] [Лицензия / iTunes] piratbit.org

Дом через торрент piratbit.org

Размер: 1.57 GB | Добавлен: 3 года 1 мес. назад | Торрент скачан:89 раз
Скачать  

13-01-2018 11:27 Дом Скачать торрент  

Дом / Операція «Казино» / The House
Год выхода : 2017
Жанр : комедия
Страна : США
Продолжительность : 01:28:05
Перевод: Украинский (дублированный)
Субтитры : английские

Режиссер : Эндрю Дж. Коэн

В главных ролях: Уилл Феррелл, Эми Полер, Джейсон Манцукас, Райан Симпкинс, Ник Кролл, Эллисон Толман, Роб Хюбель, Кристина Оффли, Джесси Эннис, Рори Сковел

Описание: Отец семейства уговаривает своих друзей организовать нелегальное казино в подвале собственного дома после того, как они с женой растранжирили деньги, отложенные на обучение дочери в колледже.



Файл
Качество : BDRip-AVC
Формат видео : MKV
Видео : 1024х428 , 23.976 fps, ~1779 kbps avg
Звук 1 : 48 kHz, AC3 Dolby Digital, 6 ch, ~ 384 kbps - Ukr DUB
Звук 2 : 48 kHz, AC3 Dolby Digital, 6 ch, ~ 384 kbps - Eng

Релиз --
General
Unique ID : 253252973355979108500946204257467716332 (0xBE86BF9CFBF26555A9955750D12352EC)
Complete name : E:\The House (2017) BDRip-AVC [UKR_ENG] [Hurtom].mkv
Format : Matroska
Format version : Version 4 / Version 2
File size : 1.57 GiB
Duration : 1 h 28 min
Overall bit rate : 2 549 kb/s
Encoded date : UTC 2018-01-12 14:36:30
Writing application : mkvmerge v14.0.0 ('Flow') 64bit
Writing library : libebml v1.3.4 + libmatroska v1.4.5
Cover : Yes
Attachments : cover

Video
ID : 1
Format : AVC
Format/Info : Advanced Video Codec
Format profile : High@L4.1
Format settings : CABAC / 12 Ref Frames
Format settings, CABAC : Yes
Format settings, RefFrames : 12 frames
Codec ID : V_MPEG4/ISO/AVC
Duration : 1 h 28 min
Bit rate : 1 779 kb/s
Width : 1 024 pixels
Height : 428 pixels
Display aspect ratio : 2.40:1
Frame rate mode : Constant
Frame rate : 23.976 (24000/1001) FPS
Color space : YUV
Chroma subsampling : 4:2:0
Bit depth : 8 bits
Scan type : Progressive
Bits/(Pixel*Frame) : 0.169
Stream size : 1.07 GiB (68%)
Writing library : x264 core 142 r2431 ac76440
Encoding settings : cabac=1 / ref=12 / deblock=1:-1:-1 / analyse=0x3:0x113 / me=umh / subme=11 / psy=1 / psy_rd=1.00:0.15 / mixed_ref=1 / me_range=32 / chroma_me=1 / trellis=2 / 8x8dct=1 / cqm=0 / deadzone=21,11 / fast_pskip=0 / chroma_qp_offset=-5 / threads=12 / lookahead_threads=2 / sliced_threads=0 / nr=0 / decimate=1 / interlaced=0 / bluray_compat=0 / constrained_intra=0 / bframes=8 / b_pyramid=2 / b_adapt=2 / b_bias=0 / direct=1 / weightb=1 / open_gop=0 / weightp=2 / keyint=240 / keyint_min=23 / scenecut=40 / intra_refresh=0 / rc_lookahead=60 / rc=2pass / mbtree=1 / bitrate=1779 / ratetol=1.0 / qcomp=0.60 / qpmin=10 / qpmax=69 / qpstep=4 / cplxblur=20.0 / qblur=0.5 / vbv_maxrate=50000 / vbv_bufsize=62500 / nal_hrd=none / filler=0 / ip_ratio=1.40 / aq=1:1.00
Language : English
Default : Yes
Forced : No

Audio #1
ID : 2
Format : AC-3
Format/Info : Audio Coding 3
Format settings, Endianness : Big
Codec ID : A_AC3
Duration : 1 h 28 min
Bit rate mode : Constant
Bit rate : 384 kb/s
Channel(s) : 6 channels
Channel positions : Front: L C R, Side: L R, LFE
Sampling rate : 48.0 kHz
Frame rate : 31.250 FPS (1536 SPF)
Bit depth : 16 bits
Compression mode : Lossy
Stream size : 242 MiB (15%)
Title : AC3 5.1 @ 384 kbps
Language : Ukrainian
Service kind : Complete Main
Default : Yes
Forced : Yes

Audio #2
ID : 3
Format : AC-3
Format/Info : Audio Coding 3
Format settings, Endianness : Big
Codec ID : A_AC3
Duration : 1 h 28 min
Bit rate mode : Constant
Bit rate : 384 kb/s
Channel(s) : 6 channels
Channel positions : Front: L C R, Side: L R, LFE
Sampling rate : 48.0 kHz
Frame rate : 31.250 FPS (1536 SPF)
Bit depth : 16 bits
Compression mode : Lossy
Stream size : 242 MiB (15%)
Title : AC3 5.1 @ 384 kbps
Language : English
Service kind : Complete Main
Default : No
Forced : No

Text
ID : 4
Format : UTF-8
Codec ID : S_TEXT/UTF8
Codec ID/Info : UTF-8 Plain Text
Title : Full
Language : English
Default : No
Forced : No

Menu
00:00:00.000 : en:00:00:00.000
00:10:59.158 : en:00:10:59.158
00:22:00.945 : en:00:22:00.945
00:33:55.784 : en:00:33:55.784
00:43:26.562 : en:00:43:26.562
00:53:02.262 : en:00:53:02.262
01:02:37.921 : en:01:02:37.921
01:11:05.761 : en:01:11:05.761
01:20:32.327 : en:01:20:32.327
скриншот  скриншот  скриншот  
piratbit.org



Скачать Дом через торрент http://i102.fastpic.ru/big/2018/0113/0c/3772c1732c8aea4813b00524753ed20c.jpg Скачать фильм Дом через торрент бесплантно в хорошем качестве Описание: Отец семейства уговаривает своих друзей организовать нелегальное казино в подвале собственного дома после того, как они с женой ... 10 10 3
Info! Золотая раздача, скачанное не засчитывается.
Торрент: Зарегистрирован [2018-01-13 11:27] · скачан: 89 раз
Статус: √ проверено
Размер: 1.57 GB
Как cкачать? Как скачать Дом через торрент | UTorrent

28-11-2019 20:33  

Отключить всю рекламу на сайте

13-01-2018 11:33 Дом Скачать торрент  

фильм бомба piratbit.org



07-03-2018 16:45 Дом Скачать торрент  

А русского дубляжа стоит вообще ждать!? А то фильм уже когда вышел,а перевода нет!(((piratbit.org



07-03-2018 16:56 Дом Скачать торрент  

Елена1967 писал(а):

А русского дубляжа стоит вообще ждать!? А то фильм уже когда вышел,а перевода нет!(((

хзpiratbit.org



    Дорогой пользователь! Огромная просьба, поблагодарите релизера, оцените раздачу и оставьте свои комментарий, если Вы скачали Дом через торрент бесплатно! Внесите свою лепту в развитие PiratBit!
    Комментировать посты могут только пользователи прошедшие не сложную регистрацию
    Показать сообщения:    

    Дом через торрент
    Скачать бесплатно Дом
    Дом скачать торрент
    Дом смотреть онлайн
    Cкачать фильм Дом бесплатно
    Дом скачать торрент в хорошем качестве
    Дом смотреть онлайн бесплатно в хорошем качестве


    Вы не можете начинать темы
    Вы не можете отвечать на сообщения
    Вы не можете редактировать свои сообщения
    Вы не можете удалять свои сообщения
    Вы не можете голосовать в опросах
    Вы не можете прикреплять файлы к сообщениям
    Вы можете скачивать файлы