Достать ножи: Стеклянная луковица

MVO

Добыча

Дубляж

Уэнсдэй

1 сезон

Тор

Дубляж

13 клиническая

1 сезон

Жестокая ночь

MVO

Одни из нас

1 сезон

Deluxe

pack

Рекомендуем

30

Пиратка

ВАЖНО

ВАЖНО

Ghostwire

Пиратка

jed

RePack

nioh2

RePack

RDR2

RePack

NEED FOR SPEED™ PAYBACK

RePack

скачать торрент

Кинопоиск HD

Острые козырьки 6 сезон

6 сезон

FAR CRY 6

RePack

скачать торрент

Лицензия

скачать торрент

MVO

1

1 сезон

скачать торрент

1 сезон

скачать торрент

Лицензия

  

Мумия: Гробница Императора Драконов / The Mummy: Tomb of the Dragon Emperor (Роб Коэн) [2008, Фэнтези, боевик, триллер, приключения, UHD BDRemux 2160p] Дубляж+2xAVO

Мумия: Гробница Императора Драконов через торрент piratbit.org

Размер: 55.83 GB | Добавлен: 5 лет назад | Торрент скачан:114 раз
Смотреть онлайн | Скачать | Поддержите нас   

14-01-2018 11:35 Мумия: Гробница Императора Драконов Скачать торрент  

Мумия: Гробница Императора Драконов / The Mummy: Tomb of the Dragon Emperor Год выпуска: 2008
Страна: США, Китай, Германия, Канада
Жанр: Фэнтези, боевик, триллер, приключения
Продолжительность: 01:51:40
Перевод: Дубляж, авторский
Субтитры: Русские, английские, украинские

Режиссер: Роб Коэн

rating

В ролях:

Джет Ли, Брендан Фрейзер, Мария Белло, Джон Ханна, Мишель Йео, Люк Форд, Изабелла Люн, Энтони Вонг Чау-Санг, Расселл Вонг, Лайам Каннингэм

Описание:

Заколдованный волшебницей, безжалостный китайский император-дракон должен провести вечность в забвении. Его 10 000 воинов превратились в терракотовых воинов. Однако когда искатель приключений Алекс О`Коннелл случайно пробуждает властителя от вечной спячки, он вынужден искать помощи у единственных людей, которые знают, как справиться с воскресшими мертвецами: у своих родителей.Монарх возвращается к жизни, и наши герои понимают, что его сила за эту тысячу лет только увеличилась. Мумия готова поднять всю Азию в борьбе за мировое господство… если О`Коннеллы ее не остановят.

Качество: UHD BDRemux 2160p
Формат: MKV

Видео: HEVC HDR, 63 Мбит/с, 3840x2160, 23.976 Кадр/с
Аудио#1: Русский 48 kHz, AC3, 6ch 448 Kbps - Дубляж
Аудио#2: Русский 48 kHz, DTS, 6ch, 1509 Kbps - Авторский (Королёв)
Аудио#3: Русский 48 kHz, DTS, 6ch, 1509 Kbps - Авторский (Гаврилов)
Аудио#4: Украинский 48 kHz, AC3, 2ch 192 Kbps
Аудио#5: Английский 48 kHz, DTS-X MA, 8ch, 4730 Kbps - Оригинал
Аудио#6: Английский 48 kHz, AC3, 2ch 192 Kbps - Оригинал
скриншот  скриншот  скриншот  скриншот  

ВидеоИдентификатор : 1
Формат : HEVC
Формат/Информация : High Efficiency Video Coding
Профиль формата : Main 10@L5.1@High
Идентификатор кодека : V_MPEGH/ISO/HEVC
Продолжительность : 1 ч. 51 м.
Битрейт : 63,0 Мбит/сек
Ширина : 3840 пикселей
Высота : 2160 пикселей
Соотношение сторон : 16:9
Режим частоты кадров : Постоянный
Частота кадров : 23,976 (24000/1001) кадра/сек
Цветовое пространство : YUV
Субдискретизация насыщенности : 4:2:0 (Type 2)
Битовая глубина : 10 бит
Бит/(Пиксели*Кадры) : 0.317
Размер потока : 49,1 Гбайт (88%)
Заголовок : The.Mummy.Tomb.Of.The.Dragon.Emperor.2008.2160p.BluRay.REMUX.HEVC.HDR
Библиотека кодирования : ATEME Titan File 3.7.8 (4.7.8.0)
Default : Да
Forced : Нет
Цветовой диапазон : Limited
Основные цвета : BT.2020
Характеристики трансфера : PQ
Коэффициенты матрицы : BT.2020 non-constant
MasteringDisplay_ColorPrimaries : Display P3
MasteringDisplay_Luminance : min: 0.0050 cd/m2, max: 1000 cd/m2
MaxCLL : 1000 cd/m2
MaxFALL : 730 cd/m2

Аудио #1
Идентификатор : 2
Формат : AC-3
Формат/Информация : Audio Coding 3
Идентификатор кодека : A_AC3
Продолжительность : 1 ч. 51 м.
Вид битрейта : Постоянный
Битрейт : 448 Кбит/сек
Каналы : 6 каналов
Расположение каналов : Front: L C R, Side: L R, LFE
Частота : 48,0 КГц
Частота кадров : 31,250 кадров/сек (1536 SPF)
Битовая глубина : 16 бит
Метод сжатия : С потерями
Размер потока : 358 Мбайт (1%)
Заголовок : Дубляж BD CEE
Язык : Russian
ServiceKind/String : Complete Main
Default : Да
Forced : Нет

Аудио #2
Идентификатор : 3
Формат : DTS
Формат/Информация : Digital Theater Systems
Идентификатор кодека : A_DTS
Продолжительность : 1 ч. 51 м.
Вид битрейта : Постоянный
Битрейт : 1509 Кбит/сек
Каналы : 6 каналов
Расположение каналов : Front: L C R, Side: L R, LFE
Частота : 48,0 КГц
Частота кадров : 93,750 кадра/сек (512 SPF)
Битовая глубина : 24 бит
Метод сжатия : С потерями
Размер потока : 1,18 Гбайт (2%)
Заголовок : Королёв
Язык : Russian
Default : Нет
Forced : Нет

Аудио #3
Идентификатор : 4
Формат : DTS
Формат/Информация : Digital Theater Systems
Идентификатор кодека : A_DTS
Продолжительность : 1 ч. 51 м.
Вид битрейта : Постоянный
Битрейт : 1509 Кбит/сек
Каналы : 6 каналов
Расположение каналов : Front: L C R, Side: L R, LFE
Частота : 48,0 КГц
Частота кадров : 93,750 кадра/сек (512 SPF)
Битовая глубина : 24 бит
Метод сжатия : С потерями
Размер потока : 1,18 Гбайт (2%)
Заголовок : Гаврилов
Язык : Russian
Default : Нет
Forced : Нет

Аудио #4
Идентификатор : 5
Формат : AC-3
Формат/Информация : Audio Coding 3
Идентификатор кодека : A_AC3
Продолжительность : 1 ч. 51 м.
Вид битрейта : Постоянный
Битрейт : 192 Кбит/сек
Каналы : 2 канала
Расположение каналов : Front: L R
Частота : 48,0 КГц
Частота кадров : 31,250 кадров/сек (1536 SPF)
Битовая глубина : 16 бит
Метод сжатия : С потерями
Размер потока : 153 Мбайт (0%)
Заголовок : TRK.UKRAINA
Язык : Ukrainian
ServiceKind/String : Complete Main
Default : Нет
Forced : Нет

Аудио #5
Идентификатор : 6
Формат : DTS
Формат/Информация : Digital Theater Systems
Профиль формата : X / MA / Core
Идентификатор кодека : A_DTS
Продолжительность : 1 ч. 51 м.
Вид битрейта : Переменный / Переменный / Постоянный
Битрейт : 4730 Кбит/сек / 4730 Кбит/сек / 1509 Кбит/сек
Каналы : Object Based / 8 каналов / 6 каналов
Расположение каналов : Object Based / Front: L C R, Side: L R, Back: L R, LFE / Front: L C R, Side: L R, LFE
Частота : / 48,0 КГц / 48,0 КГц
Частота кадров : 93,750 кадра/сек (512 SPF)
Битовая глубина : / 24 бит / 24 бит
Метод сжатия : / Lossless / Lossy
Размер потока : 3,69 Гбайт (7%)
Заголовок : Original
Язык : English
Default : Нет
Forced : Нет

Аудио #6
Идентификатор : 7
Формат : AC-3
Формат/Информация : Audio Coding 3
Идентификатор кодека : A_AC3
Продолжительность : 1 ч. 51 м.
Вид битрейта : Постоянный
Битрейт : 192 Кбит/сек
Каналы : 2 канала
Расположение каналов : Front: L R
Частота : 48,0 КГц
Частота кадров : 31,250 кадров/сек (1536 SPF)
Битовая глубина : 16 бит
Метод сжатия : С потерями
Размер потока : 153 Мбайт (0%)
Заголовок : Commentary
Язык : English
ServiceKind/String : Complete Main
Default : Нет
Forced : Нет

Текст #1
Идентификатор : 8
Формат : UTF-8
Идентификатор кодека : S_TEXT/UTF8
Идентификатор кодека/Информация : UTF-8 Plain Text
Продолжительность : 1 ч. 38 м.
Битрейт : 8 бит/сек
ElementCount : 131
Размер потока : 6,02 Кбайт (0%)
Заголовок : FUS Forced
Язык : Russian
Default : Да
Forced : Да

Текст #2
Идентификатор : 9
Формат : UTF-8
Идентификатор кодека : S_TEXT/UTF8
Идентификатор кодека/Информация : UTF-8 Plain Text
Продолжительность : 1 ч. 40 м.
Битрейт : 73 бит/сек
ElementCount : 985
Размер потока : 54,5 Кбайт (0%)
Заголовок : RUS Full
Язык : Russian
Default : Нет
Forced : Нет

Текст #3
Идентификатор : 10
Формат : UTF-8
Идентификатор кодека : S_TEXT/UTF8
Идентификатор кодека/Информация : UTF-8 Plain Text
Продолжительность : 1 ч. 41 м.
Битрейт : 71 бит/сек
ElementCount : 967
Размер потока : 52,8 Кбайт (0%)
Заголовок : UKR Full
Язык : Ukrainian
Default : Нет
Forced : Нет

Текст #4
Идентификатор : 11
Формат : UTF-8
Идентификатор кодека : S_TEXT/UTF8
Идентификатор кодека/Информация : UTF-8 Plain Text
Продолжительность : 1 ч. 40 м.
Битрейт : 44 бит/сек
ElementCount : 927
Размер потока : 32,5 Кбайт (0%)
Заголовок : ENG Full
Язык : English
Default : Нет
Forced : Нет

Текст #5
Идентификатор : 12
Формат : UTF-8
Идентификатор кодека : S_TEXT/UTF8
Идентификатор кодека/Информация : UTF-8 Plain Text
Продолжительность : 1 ч. 40 м.
Битрейт : 47 бит/сек
ElementCount : 1076
Размер потока : 35,2 Кбайт (0%)
Заголовок : ENG SDH
Язык : English
Default : Нет
Forced : Нет

Меню
00:00:00.000 : en:Chapter 1
00:05:24.073 : en:Chapter 2
00:09:52.133 : en:Chapter 3
00:14:15.479 : en:Chapter 4
00:19:13.402 : en:Chapter 5
00:24:33.680 : en:Chapter 6
00:30:57.647 : en:Chapter 7
00:35:30.962 : en:Chapter 8
00:42:16.367 : en:Chapter 9
00:48:17.686 : en:Chapter 10
00:52:26.893 : en:Chapter 11
00:57:28.528 : en:Chapter 12
01:02:40.590 : en:Chapter 13
01:09:54.231 : en:Chapter 14
01:15:54.216 : en:Chapter 15
01:21:00.981 : en:Chapter 16
01:25:33.419 : en:Chapter 17
01:33:54.962 : en:Chapter 18
01:39:53.946 : en:Chapter 19
01:41:28.499 : en:Chapter 20




Скачать Мумия: Гробница Императора Драконов через торрент http://i102.fastpic.ru/big/2018/0114/c4/9f76705096a0162c3cbde264a5c5d1c4.jpg Скачать, смотреть онлайн Мумия: Гробница Императора Драконов бесплантно в хорошем качестве Описание: Заколдованный волшебницей, безжалостный китайский император-дракон должен провести вечность в забвении. Его 10 000 воинов ... 10 10 6
Торрент: Зарегистрирован [2018-01-14 11:35] · скачан: 114 раз
Статус: √ проверено
Размер: 55.83 GB
Как cкачать? Как скачать Мумия: Гробница Императора Драконов через торрент | UTorrent

28-11-2019 20:33  


Отключить вcю реклaмy на сайте, в т.ч. и в плеере онлайн просмотра!

    Дорогой пользователь! Огромная просьба, поблагодарите релизера, оцените раздачу и оставьте свои комментарий, если Вы скачали Мумия: Гробница Императора Драконов через торрент бесплатно!!
    Комментировать посты могут только пользователи прошедшие не сложную регистрацию
    Показать сообщения:    


    Мумия: Гробница Императора Драконов через торрент
    Скачать бесплатно Мумия: Гробница Императора Драконов
    Мумия: Гробница Императора Драконов скачать торрент
    Мумия: Гробница Императора Драконов смотреть онлайн
    Cкачать фильм Мумия: Гробница Императора Драконов бесплатно
    Мумия: Гробница Императора Драконов скачать торрент в хорошем качестве
    Мумия: Гробница Императора Драконов смотреть онлайн бесплатно в хорошем качестве
    Вы не можете начинать темы
    Вы не можете отвечать на сообщения
    Вы не можете редактировать свои сообщения
    Вы не можете удалять свои сообщения
    Вы не можете голосовать в опросах
    Вы не можете прикреплять файлы к сообщениям
    Вы можете скачивать файлы
    Мумия: Гробница Императора Драконов / The Mummy: Tomb of the Dragon Emperor [2008, Фэнтези, боевик, триллер, приключения, UHD BDRemux 2160p] Дубляж+2xAVO смотреть онлайн, скачать торрент picoco.icu