1 сезон

iTunes

iTunes

1

Line

MVO

iTunes

13

1 сезон

RePack

30

Deluxe

pack

Лицензия

ВАЖНО

ИГРА 18+

pack

RePack

MK11

RePack

jed

RePack

fifa19

RePack

RDR2

RePack

NEED FOR SPEED™ PAYBACK

4 сезон

9 сезон

Бесстыжие 9 сезон

Все сериалы

все сериалы на PB.wtf

RePack

FAR CRY 5

Anonymous, добрый вечер, мы катастрофически не успеваем собрать деньги на оплату серверов, помогите нам пожалуйста 5,10,15р., для нас важна любая помощь . В качестве благодарности мы отключим Вам всю рекламу на сайте (укажите свой ник в строку Ваше имя)!

×
  
Magnet ссылка

15 августа / 15 août (Патрик Алессандрен) [2001 г., Комедия, DVDRip-AVC, Профессиональный (многоголосый)] от ExKinoRay piratbit.org

15 августа через торрент piratbit.org

Размер: 2.12 GB | Добавлен: 3 года 6 мес. назад | Торрент скачан:5 раз
Скачать  

16-01-2018 18:03 15 августа Скачать торрент  

15 августа / 15 août
Год выпуска: 2001
Страна: Франция
Жанр: Комедия
Продолжительность: 01:32:07
Перевод: Профессиональный (многоголосый)
Субтитры: Русские

Режиссер: Патрик Алессандрен

Бюджет: €7 500 000
Премьера в мире: 18 апреля 2001

rating

В ролях: Ришар Берри, Шарль Берлинг, Жан-Пьер Дарруссен, Мелани Тьерри, Квентин Поммье, Людмила Микаэль, Бландин Бари

Описание: 99% женщин «кидают» своих мужей во время отпуска! Когда Макс, Рауль и Венсан в дождливый летний день приезжают на курорт в Боль, они не находят там своих жен! Злые и мокрые, друзья вваливаются в снятый на три семьи коттедж и обнаруживают, что жены сбежали, оставив кучу нестиранного белья и чумазых, голодных детей. Устав от домашних забот, они решили, что тоже достойны каникул. Инстинктивно мужчины понимают, что в эти выходные им отдохнуть не удастся…

Качество: DVDRip-AVC
Формат: MKV
Видео кодек: MPEG4
Аудио кодек: AC3
Видео: MPEG-4 AVC, 2400 Кбит/с, 716x432@1018x432, 25 кадров/сек
Аудио#1: Русский (AC3, 6 ch, 448 Кбит/с, 48 КГц)
Аудио#2: Французский (AC3, 6 ch, 448 Кбит/с, 48 КГц)
Релиз от:




raw [info]: 716x432p 64:45 @ 25/1 fps (cfr)
x264 [info]: using SAR=64/45
x264 [info]: using cpu capabilities: MMX2 SSE2Fast LZCNT
x264 [info]: profile High, level 4.1
x264 [info]: frame I:917 Avg QP:16.09 size: 47127
x264 [info]: frame P:28042 Avg QP:18.39 size: 22854
x264 [info]: frame B:109217 Avg QP:19.50 size: 8917
x264 [info]: consecutive B-frames: 1.6% 2.3% 5.1% 22.6% 16.4% 27.8% 8.9% 7.2% 4.1% 1.2% 0.6% 0.1% 0.1% 0.2% 0.1% 0.0% 1.5%
-----
Общее
Уникальный идентификатор : 235300952193081251507050350516191650930 (0xB10550A257A7A1599DF00FF5BAC86472)
Полное имя : D:\ExKinoRay\15aout.2001.DVDRip-AVC.ExKinoRay.mkv
Формат : Matroska
Версия формата : Version 2
Размер файла : 2,12 Гбайт
Продолжительность : 1 ч. 32 м.
Общий поток : 3298 Кбит/сек
Дата кодирования : UTC 2018-01-16 14:34:48
Программа кодирования : mkvmerge v7.8.0 ('River Man') 32bit built on Apr 3 2015 12:11:22
Библиотека кодирования : libebml v1.3.1 + libmatroska v1.4.2

Видео
Идентификатор : 1
Формат : AVC
Формат/Информация : Advanced Video Codec
Профиль формата : High@L4.1
Параметр CABAC формата : Да
Параметр ReFrames формата : 14 кадров
Идентификатор кодека : V_MPEG4/ISO/AVC
Продолжительность : 1 ч. 32 м.
Битрейт : 2400 Кбит/сек
Ширина : 716 пикселей
Высота : 432 пикселя
Соотношение сторон : 2,35:1
Соотношение сторон в оригинале : 2,35:1
Режим частоты кадров : Постоянный
Частота кадров : 25,000 кадров/сек
Цветовое пространство : YUV
Субдискретизация насыщенности : 4:2:0
Битовая глубина : 8 бит
Тип развёртки : Прогрессивная
Бит/(Пиксели*Кадры) : 0.310
Размер потока : 1,50 Гбайт (71%)
Библиотека кодирования : x264 core 148 r2638 7599210
Настройки программы : cabac=1 / ref=14 / deblock=1:-2:-2 / analyse=0x3:0x133 / me=umh / subme=10 / psy=1 / psy_rd=1.05:0.15 / mixed_ref=1 / me_range=32 / chroma_me=1 / trellis=2 / 8x8dct=1 / cqm=0 / deadzone=21,11 / fast_pskip=0 / chroma_qp_offset=-3 / threads=4 / lookahead_threads=1 / sliced_threads=0 / nr=0 / decimate=0 / interlaced=0 / bluray_compat=0 / constrained_intra=0 / bframes=16 / b_pyramid=2 / b_adapt=2 / b_bias=0 / direct=3 / weightb=1 / open_gop=0 / weightp=2 / keyint=250 / keyint_min=25 / scenecut=40 / intra_refresh=0 / rc=2pass / mbtree=0 / bitrate=2400 / ratetol=1.0 / qcomp=0.60 / qpmin=0 / qpmax=69 / qpstep=4 / cplxblur=20.0 / qblur=0.5 / ip_ratio=1.40 / pb_ratio=1.30 / aq=1:1.00
Язык : English
Default : Да
Forced : Нет
Цветовой диапазон : Limited
Основные цвета : BT.601 NTSC
Характеристики трансфера : BT.601
Коэффициенты матрицы : BT.601

Аудио #1
Идентификатор : 2
Формат : AC-3
Формат/Информация : Audio Coding 3
Расширение режима : CM (complete main)
Параметр Endianness формата : Big
Идентификатор кодека : A_AC3
Продолжительность : 1 ч. 32 м.
Вид битрейта : Постоянный
Битрейт : 448 Кбит/сек
Каналы : 6 каналов
Расположение каналов : Front: L C R, Side: L R, LFE
Частота : 48,0 КГц
Частота кадров : 31,250 кадров/сек (1536 spf)
Метод сжатия : С потерями
Задержка видео : 160 мс.
Размер потока : 295 Мбайт (14%)
Язык : Russian
Default : Да
Forced : Нет

Аудио #2
Идентификатор : 3
Формат : AC-3
Формат/Информация : Audio Coding 3
Расширение режима : CM (complete main)
Параметр Endianness формата : Big
Идентификатор кодека : A_AC3
Продолжительность : 1 ч. 32 м.
Вид битрейта : Постоянный
Битрейт : 448 Кбит/сек
Каналы : 6 каналов
Расположение каналов : Front: L C R, Side: L R, LFE
Частота : 48,0 КГц
Частота кадров : 31,250 кадров/сек (1536 spf)
Метод сжатия : С потерями
Задержка видео : 160 мс.
Размер потока : 295 Мбайт (14%)
Язык : French
Default : Нет
Forced : Нет

Текст
Идентификатор : 4
Формат : UTF-8
Идентификатор кодека : S_TEXT/UTF8
Идентификатор кодека/Информация : UTF-8 Plain Text
Язык : Russian
Default : Да
Forced : Нет

piratbit.org



Скачать 15 августа через торрент http://b.radikal.ru/b33/1801/4b/845a149f7b20.jpg Скачать фильм 15 августа через торрент бесплантно в хорошем качестве Описание: 99% женщин «кидают» своих мужей во время отпуска! Когда Макс, Рауль и Венсан в дождливый летний день приезжают на курорт в Боль, ... 5 10 1
Info! Золотая раздача, скачанное не засчитывается.
Торрент: Зарегистрирован [2018-01-16 18:03] · скачан: 5 раз
Статус: √ проверено
Размер: 2.12 GB
Как cкачать? Как скачать 15 августа через торрент | UTorrent

28-11-2019 20:33  

Отключить всю рекламу на сайте

16-01-2018 18:37 15 августа Скачать торрент  

Топик был перенесен из форума Оформление раздач (Кино, Видео и ТВ) в форум Фильмы 2001-2005


schultzpiratbit.org



    Дорогой пользователь! Огромная просьба, поблагодарите релизера, оцените раздачу и оставьте свои комментарий, если Вы скачали 15 августа через торрент бесплатно! Внесите свою лепту в развитие PiratBit!
    Комментировать посты могут только пользователи прошедшие не сложную регистрацию
    Показать сообщения:    

    15 августа через торрент
    Скачать бесплатно 15 августа
    15 августа скачать торрент
    15 августа смотреть онлайн
    Cкачать фильм 15 августа бесплатно
    15 августа скачать торрент в хорошем качестве
    15 августа смотреть онлайн бесплатно в хорошем качестве


    Вы не можете начинать темы
    Вы не можете отвечать на сообщения
    Вы не можете редактировать свои сообщения
    Вы не можете удалять свои сообщения
    Вы не можете голосовать в опросах
    Вы не можете прикреплять файлы к сообщениям
    Вы можете скачивать файлы