Достать ножи: Стеклянная луковица

MVO

Добыча

Дубляж

Уэнсдэй

1 сезон

Тор

Дубляж

13 клиническая

1 сезон

Жестокая ночь

MVO

Одни из нас

1 сезон

Deluxe

pack

Рекомендуем

30

Пиратка

ВАЖНО

ВАЖНО

Ghostwire

Пиратка

jed

RePack

nioh2

RePack

RDR2

RePack

NEED FOR SPEED™ PAYBACK

RePack

скачать торрент

Кинопоиск HD

Острые козырьки 6 сезон

6 сезон

FAR CRY 6

RePack

скачать торрент

Лицензия

скачать торрент

MVO

1

1 сезон

скачать торрент

1 сезон

скачать торрент

Лицензия

  

Три икса: Мировое господство / xXx: Return of Xander Cage (Д. Дж. Карузо) [2017, Боевик, триллер, приключения, UHD BDRemux 2160p] AVO [Живов] +Дубляж [Лицензия]

Три икса: Мировое господство через торрент piratbit.org

Размер: 55.73 GB | Добавлен: 5 лет назад | Торрент скачан:63 раза
Смотреть онлайн | Скачать | Поддержите нас   

17-01-2018 00:36 Три икса: Мировое господство Скачать торрент  

Три икса: Мировое господство / xXx: Return of Xander CageГод выпуска: 2017
Страна: США
Жанр: Боевик, триллер, приключения
Продолжительность: 01:46:46

Перевод:

#1: Дублированный | Лицензия
#2: Авторский | Живов

Субтитры: Русские (forced, full), английские

Режиссер: Д. Дж. Карузо

rating

В ролях:

Вин Дизель, Донни Йен, Дипика Падукон, Крис У, Руби Роуз, Тони Джаа, Нина Добрев, Рори МакКанн, Тони Коллетт, Сэмюэл Л. Джексон, Айс Кьюб, Гермиона Корфилд, Тони Гонзалез, Майкл Биспинг, Ал Сапиенца, Найджел Беннетт

Описание:

Правительство США поручает группе чистильщиков бассейнов и прочим любителям экстремальных ощущений найти секретное оружие возмездия под названием "Ящик Пандоры". Во главе команды становится Ксандер Кейдж, принудительно возвращенный из добровольного отпуска. Дело осложняется тем, что на поиски таинственного устройства уже выдвинулись летучие отряды паркурщиков, сборная отъявленных скейтбордистов в тяжелом весе и профессиональные художники стрит-арта

Качество: UHD BDRemux 2160p
Формат: MKV

Видео: MPEG-H HEVC HDR Video, 3840x2160, 61.8 Mbit/s, 23.976 fps
Аудио#1: 48 kHz, AC3, 5.1, 640 Kbps | Дублированный | RUS |
Аудио#2: 48 kHz, DTS-HD MA, 7.1, 5834 Kbps | Авторский | RUS |
Аудио#3: 48 kHz, TrueHD, 7.1, 5703 Kbps | Оригинал | ENG |
Аудио#4: 48 kHz, AC3, 5.1, 640 Kbps | Оригинал | ENG |
скриншот  скриншот  скриншот  скриншот  скриншот  

General
Unique ID : 256212254321696295783170367507086132753 (0xC0C0AF6DF784DAA6A283C7F8FA5F4611)
Complete name : G:VideoSSDxXx.Return.of.Xander.Cage.2017.BDREMUX.2160p.4K.UltraHD.HEVC.HDR.ExKinoRay.mkv
Format : Matroska
Format version : Version 4 / Version 2
File size : 55.7 GiB
Duration : 1 h 46 min
Overall bit rate mode : Variable
Overall bit rate : 74.7 Mb/s
Movie name : xXx Return of Xander Cage 2017 from ExKinoRay
Encoded date : UTC 2018-01-16 23:12:53
Writing application : mkvmerge v20.0.0 ('I Am The Sun') 64-bit
Writing library : libebml v1.3.5 + libmatroska v1.4.8

Video
ID : 1
Format : HEVC
Format/Info : High Efficiency Video Coding
Format profile : Main 10@L5.1@High
Codec ID : V_MPEGH/ISO/HEVC
Duration : 1 h 46 min
Bit rate : 61.8 Mb/s
Width : 3 840 pixels
Height : 2 160 pixels
Display aspect ratio : 16:9
Frame rate mode : Constant
Frame rate : 23.976 (24000/1001) FPS
Color space : YUV
Chroma subsampling : 4:2:0 (Type 2)
Bit depth : 10 bits
Bits/(Pixel*Frame) : 0.311
Stream size : 46.1 GiB (83%)
Writing library : ATEME Titan File 3.7.8 (4.7.8.0)
Language : English
Default : Yes
Forced : No
Color range : Limited
Color primaries : BT.2020
Transfer characteristics : PQ
Matrix coefficients : BT.2020 non-constant
Mastering display color pri : R: x=0.680000 y=0.320000, G: x=0.265000 y=0.690000, B: x=0.150000 y=0.060000, White point: x=0.312700 y=0.329000
Mastering display luminance : min: 0.0050 cd/m2, max: 1000.0000 cd/m2

Audio #1
ID : 2
Format : AC-3
Format/Info : Audio Coding 3
Codec ID : A_AC3
Duration : 1 h 46 min
Bit rate mode : Constant
Bit rate : 640 kb/s
Channel(s) : 6 channels
Channel positions : Front: L C R, Side: L R, LFE
Sampling rate : 48.0 kHz
Frame rate : 31.250 FPS (1536 SPF)
Bit depth : 16 bits
Compression mode : Lossy
Stream size : 489 MiB (1%)
Title : Дубляж [License]
Language : Russian
Service kind : Complete Main
Default : Yes
Forced : No

Audio #2
ID : 3
Format : DTS
Format/Info : Digital Theater Systems
Format profile : MA / Core
Codec ID : A_DTS
Duration : 1 h 46 min
Bit rate mode : Variable / Constant
Bit rate : 5 834 kb/s / 1 509 kb/s
Channel(s) : 8 channels / 6 channels
Channel positions : Front: L C R, Side: L R, Back: L R, LFE / Front: L C R, Side: L R, LFE
Sampling rate : 48.0 kHz
Frame rate : 93.750 FPS (512 SPF)
Bit depth : 24 bits
Compression mode : Lossless / Lossy
Stream size : 4.35 GiB (8%)
Title : AVO
Language : Russian
Default : No
Forced : No

Audio #3
ID : 4
Format : TrueHD
Format profile : TrueHD+Atmos / TrueHD
Codec ID : A_TRUEHD
Duration : 1 h 46 min
Bit rate mode : Variable
Bit rate : 5 703 kb/s
Maximum bit rate : 8 961 kb/s
Channel(s) : Object Based / 8 channels
Channel positions : Object Based / Front: L C R, Side: L R, Back: L R, LFE
Sampling rate : / 48.0 kHz
Frame rate : 1 200.000 FPS (40 SPF)
Compression mode : Lossless
Stream size : 4.25 GiB (8%)
Title : Original
Language : English
Default : No
Forced : No

Audio #4
ID : 5
Format : AC-3
Format/Info : Audio Coding 3
Codec ID : A_AC3
Duration : 1 h 46 min
Bit rate mode : Constant
Bit rate : 640 kb/s
Channel(s) : 6 channels
Channel positions : Front: L C R, Side: L R, LFE
Sampling rate : 48.0 kHz
Frame rate : 31.250 FPS (1536 SPF)
Bit depth : 16 bits
Compression mode : Lossy
Stream size : 489 MiB (1%)
Language : English
Service kind : Complete Main
Default : No
Forced : No

Text #1
ID : 6
Format : UTF-8
Codec ID : S_TEXT/UTF8
Codec ID/Info : UTF-8 Plain Text
Duration : 1 h 42 min
Bit rate : 2 b/s
Count of elements : 42
Stream size : 2.23 KiB (0%)
Title : Forced
Language : Russian
Default : Yes
Forced : No

Text #2
ID : 7
Format : UTF-8
Codec ID : S_TEXT/UTF8
Codec ID/Info : UTF-8 Plain Text
Duration : 1 h 42 min
Bit rate : 69 b/s
Count of elements : 1005
Stream size : 52.6 KiB (0%)
Title : Full
Language : Russian
Default : No
Forced : No

Text #3
ID : 8
Format : UTF-8
Codec ID : S_TEXT/UTF8
Codec ID/Info : UTF-8 Plain Text
Duration : 1 h 36 min
Bit rate : 47 b/s
Count of elements : 1149
Stream size : 33.8 KiB (0%)
Title : Full
Language : English
Default : No
Forced : No

Text #4
ID : 9
Format : UTF-8
Codec ID : S_TEXT/UTF8
Codec ID/Info : UTF-8 Plain Text
Duration : 1 h 38 min
Bit rate : 53 b/s
Count of elements : 1392
Stream size : 38.9 KiB (0%)
Title : SDH
Language : English
Default : No
Forced : No

Menu
00:00:00.000 : en:Chapter 01
00:07:09.137 : en:Chapter 02
00:12:00.511 : en:Chapter 03
00:22:38.107 : en:Chapter 04
00:27:56.258 : en:Chapter 05
00:38:27.764 : en:Chapter 06
00:46:59.650 : en:Chapter 07
00:52:45.621 : en:Chapter 08
01:02:10.060 : en:Chapter 09
01:11:50.181 : en:Chapter 10
01:18:35.252 : en:Chapter 11
01:28:42.734 : en:Chapter 12
01:37:57.163 : en:Chapter 13




Скачать Три икса: Мировое господство через торрент http://img12.lostpic.net/2018/01/17/18cf323774ae491ff000644a6112034b.jpg Скачать, смотреть онлайн Три икса: Мировое господство бесплантно в хорошем качестве Описание: Правительство США поручает группе чистильщиков бассейнов и прочим любителям экстремальных ощущений найти секретное оружие ... 10 10 3
Торрент: Зарегистрирован [2018-01-17 00:36] · скачан: 63 раз
Статус: √ проверено
Размер: 55.73 GB
Как cкачать? Как скачать Три икса: Мировое господство через торрент | UTorrent

% Раздел Тема Автор DL S | L
Фильмы (Blu-ray, BD-Remux, HDDVD) [ 39.31 GB ] Три икса: Мировое господство / xXx: Return of Xander Cage | iTunes | Blu-ray, Дубляж iTunes Бумер Скачать
1 | 0

28-11-2019 20:33  


Отключить вcю реклaмy на сайте, в т.ч. и в плеере онлайн просмотра!

    Дорогой пользователь! Огромная просьба, поблагодарите релизера, оцените раздачу и оставьте свои комментарий, если Вы скачали Три икса: Мировое господство через торрент бесплатно!!
    Комментировать посты могут только пользователи прошедшие не сложную регистрацию
    Показать сообщения:    


    Три икса: Мировое господство через торрент
    Скачать бесплатно Три икса: Мировое господство
    Три икса: Мировое господство скачать торрент
    Три икса: Мировое господство смотреть онлайн
    Cкачать фильм Три икса: Мировое господство бесплатно
    Три икса: Мировое господство скачать торрент в хорошем качестве
    Три икса: Мировое господство смотреть онлайн бесплатно в хорошем качестве
    Вы не можете начинать темы
    Вы не можете отвечать на сообщения
    Вы не можете редактировать свои сообщения
    Вы не можете удалять свои сообщения
    Вы не можете голосовать в опросах
    Вы не можете прикреплять файлы к сообщениям
    Вы можете скачивать файлы
    Три икса: Мировое господство / xXx: Return of Xander Cage [2017, Боевик, триллер, приключения, UHD BDRemux 2160p] AVO [Живов] +Дубляж [Лицензия] смотреть онлайн, скачать торрент picoco.icu