Лицензия

MVO

1

1 сезон

Лицензия

Лицензия

13

MVO

1 сезон

Deluxe Edition

pack

Рекомендуем

30

Repack

ВАЖНО

ВАЖНО

Ghostwire

RePack

jed

RePack

fifa19

RePack

RDR2

RePack

NEED FOR SPEED™ PAYBACK

RePack

Кинопоиск HD

 Острые козырьки 6 сезон

6 сезон

FAR CRY 6

RePack

Лицензия

MVO

1

1 сезон

1 сезон

Лицензия

  

Млечный путь (Исаак Шмарук) [1959, СССР, мелодрама, SATRip от AVP Studio]

Млечный путь через торрент piratbit.org

Размер: 1.09 GB | Добавлен: 4 года 8 мес. назад | Торрент скачан:15 раз
Смотреть онлайн Млечный путь | Скачать   

18-01-2018 08:59 Млечный путь Скачать торрент  

Млечный путь
Страна: СССР
Производство: Киностудия им. А. Довженко

Жанр: мелодрама
Год выпуска: 1959
Продолжительность: 01:13:42

Перевод: Не требуется
Cубтитры: нет
Оригинальная аудиодорожка: русский

Режиссер: Исаак Шмарук

В ролях:
Алла Ларионова, Николай Рыбников, Михаил Жаров, Светлана Симигина, Сергей Петров, Эрдни Манджиев, Жанна Дмитренко, Константин Музыченко, Апрелина Иванова, Тамара Карачаева, Вова Краснов...
Об актёрах подробней

Описание:
Когда-то, будучи ещё студентом Киевского пединститута, Глеб (Николай Рыбников) познакомился со студенткой консерватории Лизой (Алла Ларионова). Молодые люди полюбили друг друга. Но после службы в армии Глеб поехал работать на целинные земли, а Лиза осталась в Киеве, выйдя замуж за нелюбимого человека.

Исходник: DVB
Качество видео: SATRip
Формат видео: AVI

Видео: 704х528 (4:3), 25 fps, XviD ~ 1916 kbps avg, 0.206 bit/pixel
Аудио: 48 kHz, Dolby Digital AC3 2.0, 192 kbps

Раздача от:
Общее
Полное имя : Mlechnyy.put.1959.SATRip_[New-team]_by_AVP_Studio.avi
Формат : AVI
Формат/Информация : Audio Video Interleave
Размер файла : 1,09 Гбайт
Продолжительность : 1 ч. 13 м.
Общий поток : 2117 Кбит/сек
Программа кодирования : VirtualDubMod 1.5.10.3 | www.virtualdub-fr.org || (build 2550/release)
Библиотека кодирования : VirtualDubMod build 2550/release

Видео
Идентификатор : 0
Формат : MPEG-4 Visual
Профиль формата : Advanced Simple@L5
Настройки формата : BVOP1 / Custom Matrix
Параметр BVOP формата : 1
Параметр QPel формата : Нет
Параметр GMC формата : Без точки перехода
Параметр матрицы формата : Выборочная
Идентификатор кодека : XVID
Идентификатор кодека/Подсказка : XviD
Продолжительность : 1 ч. 13 м.
Битрейт : 1916 Кбит/сек
Ширина : 704 пикселя
Высота : 528 пикселей
Соотношение сторон : 4:3
Частота кадров : 25,000 кадров/сек
Цветовое пространство : YUV
Субдискретизация насыщенности : 4:2:0
Битовая глубина : 8 бит
Тип развёртки : Прогрессивная
Метод сжатия : С потерями
Бит/(Пиксели*Кадры) : 0.206
Размер потока : 1010 Мбайт (90%)
Библиотека кодирования : XviD 73

Аудио
Идентификатор : 1
Формат : AC-3
Формат/Информация : Audio Coding 3
Идентификатор кодека : 2000
Продолжительность : 1 ч. 13 м.
Вид битрейта : Постоянный
Битрейт : 192 Кбит/сек
Каналы : 2 канала
Расположение каналов : Front: L R
Частота : 48,0 КГц
Частота кадров : 31,250 кадров/сек (1536 SPF)
Битовая глубина : 16 бит
Метод сжатия : С потерями
Размер потока : 101 Мбайт (9%)
Выравнивание : Разделение по промежуткам
Продолжительность промежутка : 40 мс. (1,00 видеокадр)
Время предзагрузки промежутка : 500 мс



Скачать Млечный путь через торрент http://i102.fastpic.ru/big/2018/0118/29/3b630222a238bc7e0d2cdc4861d6eb29.png Скачать, смотреть онлайн Млечный путь бесплантно в хорошем качестве Описание:Когда-то, будучи ещё студентом Киевского пединститута, Глеб (Николай Рыбников) познакомился со студенткой консерватории Лизой ... 10 10 1
Info! Золотая раздача, скачанное не засчитывается.
Торрент: Зарегистрирован [2018-01-18 08:59] · скачан: 15 раз
Статус: √ проверено
Размер: 1.09 GB
Как cкачать? Как скачать Млечный путь через торрент | UTorrent

% Раздел Тема Автор DL S | L
Кино СССР [ 1.09 GB ] Млечный путь | | SATRip-AVC от AVP Studio AVP Studio Скачать
1 | 0

28-11-2019 20:33  

Отключить вcю реклaмy на сайте

    Дорогой пользователь! Огромная просьба, поблагодарите релизера, оцените раздачу и оставьте свои комментарий, если Вы скачали Млечный путь через торрент бесплатно!!
    Комментировать посты могут только пользователи прошедшие не сложную регистрацию
    Показать сообщения:    


    Млечный путь через торрент
    Скачать бесплатно Млечный путь
    Млечный путь скачать торрент
    Млечный путь смотреть онлайн
    Cкачать фильм Млечный путь бесплатно
    Млечный путь скачать торрент в хорошем качестве
    Млечный путь смотреть онлайн бесплатно в хорошем качестве
    Вы не можете начинать темы
    Вы не можете отвечать на сообщения
    Вы не можете редактировать свои сообщения
    Вы не можете удалять свои сообщения
    Вы не можете голосовать в опросах
    Вы не можете прикреплять файлы к сообщениям
    Вы можете скачивать файлы